&title=心象的フラクタル
&artist=トゲナシトゲアリ
&first=0
&des=Tail_R
&lv_5=13+
&inote_5=(132)
{1},
{1}3h[1:1],
{1}4h[1:1],
{1}5h[1:1],
{1}6<4[2:1],
{4}4qq8[2:1],8,7,6,
{4}5pp8[2:1],8,1,2,
{4}3V14[8:3],5-8[8:1],5x,{16}3,4,2,5,
{16}3,3h[8:1],,4h[16:3],,,5,,6/4,,1,,3/5,,8,,
{16}6/4,,1,,3,4,,5h[16:3]/3,,,B2,,6,5,7,4,
{16}6,6h[8:1],,5h[16:3],,,4,,3/5,,8,,6/4,,1,,
{16}2/8,,4,,7,8,,7h[16:3]/1,,,E2,,3,4,2,5,
{16}3,3h[8:1],,4h[16:3],,,5,,6/4,,1,,3/5,,1,8,
{16}2h[8:1],,4,,2,1,,4/5h[16:3],,,C,,6,5,7,4,
{16}6,6h[8:1],,5h[16:3],,,4,,3/5,,8,,6/4,,2,8,
{16}1h[8:1],,,3h[8:1]/4h[8:1],,,1h[8:1]/8h[8:1],,,,3x/6x,,E7/B7/Cf/B3/E3,,,,
{4}8>4[2:1],5,5,5,
{4}6V48[2:1],3,3,3,
{4}2pp6[2:1],7,7,7,
{8}8-4[8:1],,3-8[8:1],,8,7,6/1,,
{4}3qq8[2:1],8,7,6,
{4}5V71-6[2:1],1,2,3,
{4}4-1[8:1]*-7[8:1],4,{8}2/6,2/6,3/5,3/5,
{4}4x-8[2:1],E8,E7,E6,
{16}4-8[2:1],,,,B8,,,,A7/B7,,,A6/B6,,,A5/B5,,
{4}4x-8[2:1],D8,D7,D6,
{16}4-8[2:1],,,,A8,,,,D7/E7,,,D6/E6,,,D5/E5,,
{8}1h[4:1],,E1,2h[4:1],E8,,E7/3h[8:1],,
{16}1/5,,,2,B8,,3,,4h[8:3]/A7/B7,,,A6/B6,,,A5/B5,,
{8}2/6,2/6,3/7,3/7,4/8,4/8,1pp6[8:3]/5,1/5,
{2}5hb[4:1],{16}3/7,,1/5,,2-5b[8:1],8,3,4,
{16}2b,,6,,4/5,,3,1,2,8,1,7,8-4[8:1],6,8,6,
{16}8,,5,,2/6,,1,,3-8[8:1]/8,,7,,6,,5,,
{16}4/1,,2,3,1x-4[8:1],,4,,1-5[8:1],,5,,1,,6h[8:1],,
{16}1,,3,4,2/5,,1,7,2-5[8:1],8,2,4,2-6[8:1],,6,,
{16}7b,,8,,4/5,,7,1,6,4,6,8,6-2[8:1],4,6,8,
{16}6b-1[8:1],,3,,2x,,3,3,8,,6,5,7,,2/4,,
{8}1>4[8:1],1,8,7,6^1[8:1],6,5,4,
{16}3-8[8:1]/7-4[8:1],,,,3/7,,,,6/2,,8/4,,7-4b[8:1],1,6,5,
{16}7b,,3,,5/4,,6,8,7,1,8,2,1-5[8:1],3,1,3,
{16}1,,4,,7/3,,8,,6-1[8:1]/1,,2,,3,,4,,
{16}5/8,,7,6,8-5[8:1],,5,,8-4[8:1],,4,,8,,3h[8:1],,
{16}1,,6,5,7/4,,8,2,7-4[8:1],1,7,5,7-3[8:1],,3,,
{16}2b,,1,,5/4,,2,8,3,5,3,1,3-7[8:1],5,3,1,
{16}3b>5[8:3],,,,C,,,,,,,,3,4,2,4,
{16}1,1h[8:1],,2h[16:3],,,3,,4-8[8:1],,1,,2,,3,,
{16}4-8[8:1]/7,,6,,5,5,,4h[16:3],,,E2,,6,5,7,5,
{16}8,8h[8:1],,7h[16:3],,,6,,5-1[8:1],,8,,7,,6,,
{16}5h[8:1]/1h[8:1],,,3h[8:1]/7h[8:1],,,1h[8:1]/8h[8:1],,,,4/5,,A7/E7/B7/Cf/B3/E3/A3,,,,
{16}3x/4x,,2x,1x,3x,4x,1x,8x,{48}2x,E3,B3,B4,,,,,6x,E7,B7,B8,,,,,,,3x,,,5x,,,
{8}4xV28[4:1],,8-3-5[4:1],,7,,6,6,
{8}5V73[4:1]/4,,3-6-4[4:1],,2,,1,1,
{8}8-4[8:1]/5,8,4-7[8:1],5,6,6h[8:1],8,{16}7,1,
{8}8qq4[4:1],,4-8[8:1],,3,,2,2,
{8}1pp4[4:1]/8,,4v1[8:1],,5,,6,6,
{16}7-3[8:1]/8,,,,3,,2,2,4,,5/6,,3,8,2,1,
{16}3bh[4:1]/8b,,,,7h[1024:1],,4h[1024:1]`5h[1024:1],,5h[1024:1]`6h[1024:1],,6h[1024:1]`7h[1024:1],,7h[1024:1]`8h[1024:1],,1h[1024:1]`8h[1024:1],,
{16}2h[1024:1]`4h[1024:1],,2h[1024:1],2hx[1024:1]`1hx[1024:1],,7h[1024:1],7hx[1024:1]`8hx[1024:1],,4h[1024:1]`5h[1024:1],,3h[1024:1]`7h[1024:1],,2h[1024:1]`6h[1024:1],,1h[1024:1],7h[1024:1],
{16}8h[1024:1],,6h[1024:1],6hx[1024:1]`5hx[1024:1],,3h[1024:1],3hx[1024:1]`4hx[1024:1],,1h[1024:1]`8h[1024:1],,5h[1024:1]`2h[1024:1],,7h[1024:1]`4h[1024:1],,3h[1024:1],5h[1024:1],
{16}4h[1024:1],,E6,,3h[1024:1]`5h[1024:1],,B3,,7h[1024:1]`4h[1024:1],,B7,,1h[1024:1]`8h[1024:1],,B1,,
{16}3h[1024:1],3h[16:13],,5h[1024:1],,7h[1024:1],,4h[1024:1],,6h[1024:1],,7h[1024:1],7h[1024:1],,8h[1024:1],,
{16}2h[1024:1],2h[16:13],,4h[1024:1],,6h[1024:1],,3h[1024:1],,5h[1024:1],,7h[1024:1],7h[1024:1],,8h[1024:1],,
{12}7hx[1024:1]`2hx[1024:1],8h[1024:1],1h[1024:1],2hx[1024:1]`8hx[1024:1],1h[1024:1],2h[1024:1],{16}3hx[1024:1]`1hx[1024:1],,5h[1024:1],5hx[1024:1]`6hx[1024:1],,3h[1024:1],3hx[1024:1]`4hx[1024:1],,
{16}5h[1024:1]`4h[1024:1],,E4,,6h[1024:1]`4h[1024:1],,B6,,2h[1024:1]`5h[1024:1],,B2,,8h[1024:1]`1h[1024:1],,B8,,
{1}6bpp5[2:3]`5hx[1024:1],
{4}4h[2:1],,,4-1[8:1],
{1}6pp5[2:3]/4,
{4}4h[2:1],,,4-1[8:1],
{4}6pp5[2:3]/4,2,3,4,
{4}A1/B1,A2/B2,A3/B3,A4/B4,
{8}7/3,7/3,2/6,2/6,1/5,1/5,8/4,8/4,
{8}7/3,7/3,2/6,2/6,{16}1,5,2,6,3,7,4,8,
{8}5b-1[8:1],,,,3/7,1/5,{16}6,5,7,5,
{4}6b<3[8:3],Chf[2:1],,{32}3bx,2bx,1bx,8bx,7bx,6bx,,,
{16}2bx-6[8:1],,,,2/6,,7,,8V64[8:1]/5,,4,,3,,2,,
{16}4/1,,2,4,3-5[8:1],,5,,3-6[8:1],,6,6,3,,7h[8:1],,
{16}8,,3,5,2/6,,1,7,2^5[8:1],5,1,8,2-6[8:1],,6,,
{16}7b,,8,,4/5,,7,1,6,4,7,8,6-2[8:1],4,7,8,
{16}6b^1[8:1],,4,,3x,,2,2,8x,,6,5,8,,3/4,,
{16}1-4[8:1],,8,8,1,,7,,6-1[8:1],,4,4,6,,4,,
{16}2v5b[8:1]/6v1b[8:1],,,,2/6,,,,7bx,3,5,1,7-4b[8:1],8,5,4,
{16}7b,,3,,5/4,,6,4,7,8,5,3,8-4[8:1],1,4,3,
{16}8,,3,,2/6,,8/4,,7V51[16:3]/1,,2,,3,,4,,
{16}5/8,,7,5,6^4[8:1],,4,,6-3[8:1],,3,3,6,,2h[8:1],,
{16}1,,6,4,7/3,,8,2,7^4[8:1],4,8,1,7-3[8:1],,3,,
{16}2b,,1,,5/4,,2,8,3,5,2,1,3-7b[8:1],5,2,1,
{4}3bw7[8:1],3,Cf,{16}3,4,2,4,
{16}3,3h[8:1],,1h[16:3],,,4,,3/5,,1/2,,4/6,,7/8,,
{16}6/4,,1/8,,3,3/4,,5h[16:3]/6,,,E8,,6,5,7,5,
{16}6,6h[8:1],,8h[16:3],,,5,,3/5,,7/8,,6/4,,2,1,
{16}3/8,,4,,7,7/8,,1h[16:3]/8,,,E7,,3,4,2,5,
{16}3,3h[8:1],,1h[16:3],,,4,,2-5[8:1]/5,,6,,7,,8,8,
{16}4-7[8:1],,3,,2,2,,1h[16:3],,,C,,6,5,7,4,
{16}6,6h[8:1],,8h[16:3],,,5,,7-4[8:1]/4,,3,,2,,1,1,
{16}5h[8:1],,,3h[8:1]/7h[8:1],,,1h[8:1]/8h[8:1],,,,2x/6x,,5-8b[12:1]/1-4b[12:1],,,,
E
