&title=紅
&artist=X JAPAN
&first=-0.075
&des=Unika
&des_5=
&lv_5=14
&inote_5=(75){4},3-7[0.8##1.6],{16},,,,,,,,(92.6),
,,1,(146.293){4}2/8-5b[0.406##0.3791]*z4b[0.406##0.3791],(151.99),(154.67){8},3,
(155.84),6,(152.39){4}7h[#0.3937268]/1-4[0.3898##0.386],(153.92),(162.84){16}5,,,4/6,
(153.98){8},3/7,(161.87){4}2h[#0.3706679]/8-5[0.3707##0.3564],(164.98),(152.05)1v4[0.3907##0.1689],
(163.68){8}1,7,(147.24){16}6/5>2[0.4075##0.1898],,,7,(151.77){8}5,6,(161.12){16}5/4<7[0.3724##0.1964],,,3,
(155.83){8}4,2,(149.96){4}1/8pp5[0.3961##0.513],(168),(150.18){8},4,
(163.68),6,(155.48){4}7/5v4-2[0.382##0.3802],(156.25),(156.24){8}8,{16}1-5[0.3802##0.1881],7,
(156.26){8},1,(163.283){4}8z4[0.3675##0.4295],(149.8),(165.44){8}3,7/5>2[0.38##0.1998],
(157.02),5,(146.66)6,{16}3,4,(165.84){8},6/2,(156.67){16}3,5,4,6,
(147.34)5,7,{8}1b,(153.53)2/8-3[0.3869##0.1812],7,(159.07)8/7,{16}6,6,(153.53){8}4,{16}5,4,
(159.45)6,5,{8}7,(162.83)7/1-6[0.3685##0.1852],2,(162.01)1/2,{16}3,3,(152.38){8}5,{16}4,5,
(159.88)3,4,{8}2,(151.39)2/8-3[0.3924##0.1768],7,(159.67)8/7,{16}6,6,(154.79){8}4,{16}5,4,
(170.91)6,5,{8}7,(143.56)2/8,6/B4,(153.93){16},3/B7,,,(163.61)5/B2,,,1/B6,
(152.11){8},7/B3,(151.66)4/6,7,(161.13){16}1>4[0.3724##0.1959],8,,,(156.24){8}1,{16}6,6,
(165.45),3,{8}4,(148.03)2/8,3,(156.24)7-4[0.3802##0.1707],5,(165.45)7,{16}3,3,
(156.24),5,{8}4,(156.25)6bh[#0.7258797],3>7q4[0.3629##0.593],(164.97),3,(148.4){4},
(165.644){8}5p8V64[0.3586##0.598],3,(156.84){4}5/4,(158.65),(150.56){8}3,{16}6,5,
(154.04),2,{8}4,(164.32)5/6,7,(156.73){16}2>5[0.379##0.1871],8,,,(157.15){8}2,{16}6,6,
(144.35),3,{8}4,(156.43)2/8,3,(156.73){16}6-1[0.379##0.2],4,,,(152.96){8}6,{16}2,2,
(165.11),7,{8}1,(156.96)5bh[#0.730629],3qq4<3[0.3635##0.9654],(163.62),3,(160.49){4},
(148.03),(161.87){16}7,6,4,3,(148.29)6,5,3,2,(150.73)5,4,2,1,
(159.45){8}3w7[0.3763##0.1966],2/4,(155.65){4}3,(162.2){8},1,(157.73)7/1-5[0.3804##0.1909],6-8[0.3811##0.1909],
(157.16)1,6,(150.94){4}3qq5[0.3935##0.5436],(159.88),(153.36),
(153.92){8}7w3[0.3859##0.1674],6/5,(165.18){4}7,(157.86){8}1-5[0.3801##0.2008],2/4-7[0.3908##0.2002],(152.39)1,4,
(165.45)3,2/8,(150.94)7b/1b,{16}6-2[0.3998##0.2011],5/7,(149.21){8},6/8,(159.74){4}8bh[#0.3756104],
(159.88){8}1w5[0.3753##0.2038],8/2,(153.07){4}1,(165.11){8},3,(156.25)5/3-8[0.384##0.1945],6-4[0.3865##0.1945],
(154.21)3,6,(158.05){4}2qq5[0.3758##0.6039],(156.54),(146.66),
(153.13){8}7<4[0.3879##0.1733]/3>8[0.3879##0.1733],2/6,(162.9){4}3/7,(156.54){8},2,(163.28){4}7/1>6[0.3675##0.7894],
(156.24){8}1<6b[0.3802##0.371],8,(158.53){4}1,(156.37),(156.55){16}3,,,6,
(162.06){8}4,7,(158.78)2/8,{16}3,4,(146.81)3,4,{8}3,(164.66){16}5/2,,,6,
(158.05){8}4,7,(149.36)1/7,{16}6,5,(156.85)6,5,{8}6,(154.27){16}3,,,6,
(163.41){8}4,7,(148.03)8/2,{16}3,4,(165.44){8},{16}1,1-5[0.4103##0.2131],(152.06)7,,,1/8,
(152){4},(158.34){8}2/8-4[0.3751##0.1983],7,(154.21)6/8,{16}5,5,(165.44){8}3,{16}6,4,
(155.79)7,5,{8}6,(156.72)7/1-5[0.379##0.1767],2,(163.12)3/1,{16}4,4,(156.84){8}6,{16}3,5,
(157.74)2,4,{8}3,(156.25)2/8-4[0.384##0.1705],7,(165.44)6/8,{16}5,5,(151.77){8}3,{16}6,4,
(161)7,5,{8}6,(151.56)2/8,6/B4,(157.74){16},3/B7,,,(158.52)5/B2,,,1/B6,
(171.06){8},7/B3,(144.15)4/6,7,(148.67){16}1v4[0.4036##0.1596],8,,,(165.44){8}1,{16}6,6,
(165.45),3,{8}5,(145.22)2/6,3,(150.94){16}7-2[0.3935##0.1845],4,,,(156.25){8}7,{16}3,3,
(152.38),8,{8}2,(165.45)6bh[#0.5375137],3-5[0.3562##0.1749],(168.13),3,(150.89)7-4[0.3937##0.1689],8,
(163.74)7,3v4-6[0.4066##0.4046],(147.71){4}5/2,(162.28),(152.79){8}7,{16}7,5,
(154.27),6,{8}4,(165.44)5/3,7,(148.03){16}2q6[0.4013##0.1807],8,,,(156.25){8}2,{16}7,7,
(156.24),5,{8}6,(156.61)7/4,6,(156.37){16}3>8[0.3799##0.1845],5,,,(159.38){8}3,{16}6,6,
(171.41),1x,{8}1x,(159.08)7bh[#0.5997238],8-4[0.4111##0.222],(145.58),8,(148.02)6,5/7,
(156.25)6/4,5/3,(164.98){16}2/4,5,6,7,(144.56)8/4,3,2,1,(160.31)8/4,5,6,7,
(158.65){8}2v5[0.3782##0.2071]/8v5[0.3782##0.2071],4/6,(150.62){4}8b/2b,(160.99){8},3,(159.14)8/2-8[0.3733##0.1972],7-3[0.3858##0.1967],
(155.08)2>1[0.3869##0.9473],7,(169.02){4}2,(141.3),(168.13),
(165.447){8}3-8-5[0.3627##0.4054]/7-4-1[0.3627##0.4054],2/6,(156.24){4}3/7,(140.63),(159.45){8}3/6,B7/E7/B1/E2,
(159.08)3qq5b[0.3772##0.9972]/6pp4b[0.3772##0.9972],B2/E3/B8/E8,(148.02)3/6,Cf,(163.35){4},(152.33),
(155.68){8}3w7[0.3816##0.1664],4/5,(166.09){4}3,(154.67){8},1,(158.96)7/1-5[0.3775##0.1906],6-8[0.3793##0.1906],
(157.43)1,6,(169.66){4}3qq5[0.3501##0.7127],(143.25),(150.89),
(165.12){8}7w3[0.3634##0.1851],5/6,(162.06){4}7,(153.07){8}1-5[0.392##0.1916],2/4-7[0.3876##0.1916],(153.45)1,4,
(163.16)3,2/8,(150.62){16}1,2,3,4,(158.95){8}5/7-1[0.3775##0.184],8,(159.81)7-4[0.3717##0.1973],2,
(154.96)7,2,(157.74){16}5,6,7,8,(159.69){8}1/2-8[0.372##0.2057],3,(151.56)2-5[0.3959##0.1831],7,
(157.32)2,7,(155.36){16}4,3,2,1,(165.25){8}7/8-2[0.3631##0.1901],6,(160.93)8-3[0.3691##0.1959],6,
(156.13)8,6,(153.92){16}5,6,7,8,(154.21){8}2/1-7[0.3891##0.1882],3,(156.25)1-6[0.384##0.1786],3,
(161.24)1,3,(155.37){16}1,2,3,4,(157.14){8}6/5-2[0.378##0.1931],7,(155.31)7/5-8[0.3825##0.1969],6,
(152.34)5/3,4,(159.25){16}1,8,7,6,(163.62){8}5/4-7[0.363##0.2151],3,(150.39)2/4-1[0.399##0.1724],3,
(160.06)4/6,5,(152.67){16}8,1,2,3,(155.19){8}4/5-7[0.3828##0.1866],5-1[0.3798##0.1865],(157.62)5-8[0.3807##0.209],5-2[0.3994##0.2076],
(149.26)5,5,(163.34){4}7bs3[0.3637##0.5896],(158.05),(157.08),
(150.39){32}2,3,4,5,6,7,8,1,(163.35){8}2/6,4b/8b-4[0.4066##0.2187],(148.03),8,(165.44)2h[8:1],{16}5,3h[#0.1776047],
(165.64),6,{8}4h[400:49],(151.27)7h[8:1],{16}5,6h[#0.1865768],(157.87),4,{8}5h[400:49],(157.08)4h[8:1],{16}6,3h[#0.1913834],
(156.43),5,{8}2h[#0.1917801],(160.69){4}4bqq7[0.3734##1.0263],(156.42){8},3x-7b[0.3933##0.4093],(151.89){4}3x,
(150.17),(165.45)5pp2[0.359##1.0169],(153.53){8},6x-2b[0.3844##0.3632],(155.54){4}6x,
(162.2),(158.28){8}5h[8:1],{16}3,6h[#0.197319],(152.11),4,{8}7h[#0.1972275],(154.32)4h[8:1],{16}6,3h[#0.1902237],
(154.79),5,{8}2h[400:49],(162.7)6h[8:1],{16}4,7h[#0.1864471],(159.14),5,{8}8h[#0.1885147],(154.62)3h[8:1],{16}5,2h[#0.1819305],
(162.51),4,{8}1h[#0.1846085],(152.17){4}8bz4[0.3943##0.3982],(150.68),(161.77){8},3,
(159.7){16}3s7[0.3719##0.6254],4,{8}2,(150.28){4}3,(153.81),(158.96){16}4,3/5,,6,
(155.36){4}6/5,(159.14){16}4,5,3,6,(160.43)4,5,3,6,(152.79)4,5,3,6,
(159.87){8}4,5/3,(157.15){16}2,1,3,8,(154.9)2,1,3,8,(158.35)2,1,3,8,
(156.31){8}2,8/1,(154.61){16}6,5,7,4,(150.4)6,5,7,4,(158.23)6,5,7,4,
(155.07){8}6,5/4,(165.64){16}3,4,2,5,(152.78)3,4,2,5,(160.5)3,4,2,5,
(155.6){8}3,5/4,(155.55){16}2,5,4,5,(153.07)2,5,4,5,(155.78)2,5,4,5,
(150.84){8}2,3/4,(168.33){16}6,3,4,3,(146.87)6,3,4,3,(177.6)6,3,4,3,
(181.1){8}6w2[0.328##0.2579],5/4,(143.75){4}6b>6[0.4174##0.822]*<6[0.4174##0.822],(144.56),(144.51),
(164),(155.25){16}E6f/B6/A6/D6/A5/B5,,,3,(163.03)3,,,6,(147.08)5,7,,2,
(170){4}2/8,(158.04){16}3/4,,,5,(155.67){8}4>5[0.3816##0.5652],3,(160.81){4}4,
(149.85),(166.65){16}3,4,3,6,(149.8)5,6,3,4,(150.44)2,6,5,7,
(165.64){8}4w8[0.3586##0.2292],3/5,(146.3){4}4b,(161.75)6h[400:99],(155.72){32}2,3,4,5,6,7,8,1,
(163.35){8}2-5-3-8[0.3636##0.5914]/6-1-7-4[0.3636##0.5914],7/3,(157.43){4}2b/6b,(156.85),(160.19)1-5[0.3746##0.183],
(160.62){8}1/7<5[0.3736##0.1898],6,(158.05){16}4,3,{8}2h[#0.3968124],(150.72),1,(154.96)3h[16:3],{16}5,4h[#0.2764435],
(160.32){8},6,(151.94){4}7-3[0.3949##0.1906]/5-1[0.3949##0.1906],(154.21)5/7,(158.34){16}2<7[0.3751##0.1905],,,4,
(157.44){8}2,6,(150.18)7/1,7,(164.26){16}1,2,8,7,(159.75)2,3,7,6,
(157.14){8}4bpp1[0.378##0.597],{16}5,3,(152.62){4}4b,(155.95){8},2,(162.39){4}7h[400:99],
(152.9){8}4h[400:99],{16}7,6,(159.63){4}5h[#0.3758698],(152.23){16}3,3,5,4,(153.98)6,6,5,7,
(158.35)4,4,5,4,(156.49)6,5,7,5,(161.87){8}6,{16}3,4,(151)2,4,{8}3,
(162.71){16}5,5,4,6,(168.13)3,5,4,6,(142.42){8}1,{16}6,4,(155.36)5,3,{8}8,
(163.62){16}2,6,4,8,(150){4}1b>5p8[0.4##0.7091],(162.39),(155.48)8bp3p6[0.382##0.7417],
(158.1),(159.08)6b>7b[0.3772##0.8022],(148.02),(160.19),
(161.76),(151.38){8}6/5,{16}6,5,(153.76){8}7-2[0.3863##0.1894],8/2,(155.25)7-4[0.3865##0.1725],1,
(163.49)7,1,(161.75)3/5,1/7<4[0.3957##0.2094],(151.28),7,(156.85)2,3,
(158.59)5/4,6,(153.98)7/8,{16}1,8,(156.96){8}2-7[0.3823##0.1867],3/4,(157.44)2-5[0.3811##0.1783],5,
(161.56)2,7,(152.06)4/6,2/8<5[0.3874##0.1901],(157.8),8,(152.39)3,4,
(166.1)5/2,4/7,(151.22){16}6,5,{8}7h[#0.1983948],(157.27){16}3,4,{8}2h[#0.1907654],(156.07){16}6,4,{8}8h[#0.1922302],
(158.53){16}3,5,{8}1h[#0.1892395],(151.77)7b,{16}2,4,(154.67),7,{8}5,(160.25){16}1/8,1/8,8/1,8/1,
(157.44){1}8-5[8:1]/1-4[8:1],
E
