&title=薄ら氷心中
&artist=林原めぐみ
&first=0
&des=喵
&clock_count=4
&lv_5=12+
&inote_5=(120)
{1},
{24},,,,,,,,,,,,,,,,,,,,,,,,
{16}3h[16:3]/5,,,4,3,,2,,2/4h[16:3],,,3,4,,5,,
{16}3h[16:3]/5,,,4,3,,2,,2/4h[16:3],,,3,4,,5,,
{16}4/6-4[8:1],,,4,,,3,,{24}2/4-7[8:1],,,,,1,,,,3,,,
{16}4/7-3[8:1],,,3,,,8,,1-5[8:1]/4,,,5,,,8,,
{16}6h[16:3]/4,,,5,6,,7,,7/5h[16:3],,,6,5,,4,,
{16}6h[16:3]/4,,,5,6,,7,,7/5h[16:3],,,6,5,,4,,
{16}5/3-5[8:1],,,5,,,6,,{24}7/5-2[8:1],,,,,8,,,,6,,,
{16}5/2-6[8:1],,,6,,,1,,8-4[8:1]/5,,,,4^7[12:1],,,,
{32}8b,1,2,3,,,,,{24},,,,,,,,,,,4,6,,2h[8:1],,,,
{24}3/5,,7h[8:1],,,5,7,,3h[8:1],,,4,{16}3,,6h[8:1],,7h[8:1],,8h[8:1],,
{16}1bv2[4:1],,,,,,,,1v3[4:1],,,2h[16:3],,,,,
{16}1v4[4:1],,,8h[16:3],,,,,1-5[4:1],,,2h[16:3],,,,,
{16}1v6[4:1],,,8,,,8,,1v7[4:1],,,2,,,2,,
{16}1v8[4:1],,,8,,,8,,1h,,2,,3,,7,,
{16}8v7[4:1],,,,,,1,,8v6[4:1],,,7,,,7,,
{16}8v5[4:1],,,,,,,,8h,1,2,3,{24},,7,1,,,
{16}8v3[4:1],,,1,,,1,,8v2[4:1],,,,7,,,,
{16}8h,,3,4,5/7,,8h,7,1-6[8:1]/6-3[8:1],,,,,,,,
{16}3h[16:3]/4,,,2h[16:3],,,3,,3/5h[16:3],,,6h[16:3],,,5,,
{16}2h[16:3]/5,,,1h[16:3],,,2,,2-5[8:1]/4,,5,,6,,7,,
{16}5/7h[8:3],,,8-3[8:1],,,8,,7-4[8:1],,,3/7,,,2,,
{16}2h[16:3]/4,,,1-6[8:1],2,,1,,3-5[8:1],,,3/7,,,7,,
{16}6h[16:3]/5,,,7h[16:3],,,6,,6/4h[16:3],,,3h[16:3],,,4,,
{16}7h[16:3]/4,,,8h[16:3],,,7,,7-4[8:1]/5,,4,,3,,2,,
{16}4/2h[8:3],,,1-6[8:1],,,1,,2-5[8:1],,,2/6,,,7,,
{16}7h[16:3]/5,,,8-3[8:1],7,,8,,6-1[8:1],,,,5^2[12:1],,,,
{32}1b,8,7,6,,,,,{24},,,,,,,,,,,5,3,,7h[8:1],,,,
{24}6/4,,2h[8:1],,,4,2,,6h[8:1],,,5,{16}6,,3h[8:1],,2h[8:1],,1h[8:1],,
{24}8<1[8:5],,,,,,,,,,,,,,,,,,,,,,,,
{24}1b/8b,,,,,,7/4,,5,,,8,,,5,6,4,5,{32}3,2,1,8,7,6,5,4,
{32}3qq4[4:1]/8b,7,6,5,,,,,{24},,,6,,,7-4[8:1],,5,,,,3/7,,,8,,,
{24}1-4[8:1]/5,,,7,,,1/8-4[8:1],,7,,,,3/8,,,2-4[8:1],,,1/7,,,8,,,
{24}7,,,5/6-3[8:1],,,4/7,,,3,,,2,,,3-8[8:1]/5,,,4,,,8,,,
{24}7^4[8:1],,,,,,3qq1[8:1]/7^1[8:1],,,,,,3^5[8:1]/7qq5[8:1],,,,,,3>5[4:1]/7,,,,,,
{24}3b/6pp5[4:1],,,,,,,,,2,,,8-4[8:1],,,4,,,3-6[8:1],,,2,,,
{24}3/7,,,8,,,{24}5-1[8:1],,6,,,1,{24},,,3-8[8:1],,,7,,,3/5,,,
{24}4-1[8:1],,,,,,2/4-8[8:1],,,3,,,4/8,,,6,,,{16}1/5,,1,7b,
{24}2,3,4,7,6,5,2,4,3,5,4,5,3,,2,1,,4,5,,,87,,,
{24}2-5[4:1]/6,,,,,,,,,4-7[4:1],,,,,,,,,3-6[4:1],,,,,,
{24},,,,,,8,,,,,,7-4[4:1],,,,,,,,,5,,,
(119.999)
{24}3,2,1,8,7,6,
(120)
{16}5/8b-4[8:1],,,,,,,,1^3[8:1],,,8,,,8,,
{16}7^5[8:1],,,8,,,8,,3^5[8:1],,,1,,,1,,
{16}7-4[8:1],,,,,,1,2,3-8[8:1],,,,,,,,
{16}6h[8:3],,,7,,,7,,6-4[8:1],,7,,3,,2,,
{16}1-5[8:1],,,,,,7,,8^6[8:1],,,1,,,1,,
{16}2^4[8:1],,,,,,,,6,4,5,3,{24}4h[12:1],,3,4,,,
{16}5-1[8:1],,,8,,,8,,6-8[8:1],,,,1,,,,
{16}7/3,,6,5,4/2,,1,2,8-3[8:1]/3-6[8:1],,,,,,,,
{16}5/6h[4:1],,4,,4^6[4:1],,4,,4,,4,,4,,4,,
{16}4/6h[4:1],,3,,3^6[4:1],,3,,3,,3,,3,,3,,
{16}3/6h[4:1],,2,,2q6[4:1],,2,,2,,2,,2,,3,,
{16}3/6h[4:1],,4,,4pp5[4:1],,4,,4-2[8:1],,4,,,,5,,
{16}3/6,,6,5,6-3[4:1],,6,5,6,,6,,6,,6,,
{16}3/6,,7,5,7-4[4:1],,7,,7,,7,,7,,7,,
{16}3/7,,8,5,8-5[4:1],,8,,8,5,8,,8,,8,,
{16}3/8,,7,5,7,6,7,8,7-4[8:1],,1,,8^3[12:1],,,,
{32}4b,5,6,7,,,,,{24},,,,,,,,,,,4,6,,2h[8:1],,,,
{24}3/5,,7h[8:1],,,5,7,,3h[8:1],,,4,{16}3,,6h[8:1],,7h[8:1],,8h[8:1],,
{24}1>8[8:5],,,,,,,,,,,,,,,,,,,,,,,,
{24}8b/1b,,,,,,2/5,,4,,,1,,,4,3,5,4,{32}6,7,8,1,2,3,4,5,
{32}6pp5[4:1]/1b,2,3,4,,,,,{24},,,3,,,2-5[8:1],,4,,,,2/5,,,1,,,
{24}8-4[8:1]/5,,,6,,,7/8^5[8:1],,,1,,,3/8,,,2-4[8:1],,2,4,,,5,,,
{24}6,,,4/7-4[8:1],,7,5,,,2,,,8,,,4/1-5[8:1],,,3,,,1/2,,,
{24}2^5[8:1],,,,,,6pp8[8:1]/2^8[8:1],,,,,,6^4[8:1]/2pp4[8:1],,,,,,6<4[4:1]/2,,,,,,
{24}6b/3qq4[4:1],,,,,,,,,7,,,1-5[8:1],,,5,,,6-3[8:1],,,7,,,
{24}6/2,,,8w4[8:1],,,{24},,,,,,{24},,,2^5[8:1],,,1,,,2/8,,,
{24}7-4[8:1],,,,,,5-1[8:1]/7,,,3-8[8:1],,,2/5,,,3,,,{16}7,,1,,
{24}2,3,4,5,6,7,3,4,5,6,7,8,{32}2b-6[12:1],3,4,5,6,7,8,1,6b,,,,7,,,,
{24}2-5[12:1]/5,,3,4,,4,2,,,7,,5,6v1[12:1],,7,8,,8,6,,,3,,,
{24}2/5,,2,3,,3,4,,4,5,,5,6,,,4/7-4[12:1],,5,6,,,4/7,,,
{24}3,,,2-5[12:1]/5,,4,3,,,2/5,,,7,,,4/8-4[12:1],,7,3,,,2/8,,,
{24}1,,,3/5,,5,8b,,6,4,,4,1b,,3,5,,5,7b-4[12:1],,,4/5,,,
{24}2b/7,,,1,,1,4,,4,3,,,1/2,,1,4,,,7/8,,8,5,,,
{24}3-5[12:1]/1,,,2,,,3/7-3[12:1],,,8,,,1/7,,,2,,2,4-1[12:1],,,5/6,,,
{24}4b/7,,,6-3[12:1],,,7/8,,,1/6b,,,2,,2,1,,1,8-4[12:1],,,7-5[12:1],,,
{24}6b,,,,,,4,3,2,1,8,7,5,4,3,2,1,8,3,4,5,7,6,5,
{24}1-4[4:1],,,,,,,,,5-8[4:1],,,,,,,,,2-5[4:1],,,,,,
{24},,,,,,7,,,,,,8-5[4:1],,,,,,,,,4,,,
{24}2,1,8,7,6,5,4/8b,,,,,,,,,,,,,,,,,,
{1},
E
