&title=二人の結晶-INNOCENCE-
&artist=暁Records
&first=-0.03
&des=Imagine-Lagrange
&des_5=Imagine-Lagrange
&lv_5=13+
&inote_5=(167){4},,,,{2}4h[4:1],
5h[4:1],
6h[4:1],7h[4:1],
{8}8bx/1bx,8bxz4[8:1]/1bxs5[8:1],{2},{4}5h[2:1]/4h[2:1],
,{8},5/4,6/3,7/2,8/1,6/2,
8/4,7/3,5/1,6/2,8/4,7/3,5/1,7/3,
{4}8x/2bx>5[8:1],2/1,6<1[8:1],{8}6,4h[8:3],
{4},7,6/3>8[8:1],{8}3,5h[8:3],
{4},1,8/1-4[8:1],{8}1,7,
,5/4,{4}6/3,{16}8/2-6[8:1],{8},{16}7,{8},8-4[8:1],
{4},1x,6/3>8[8:1],{8}3,5h[8:3],
{4},2,5/6<1[8:1],{8}6,4h[8:3],
{4},8,1/8-5[8:1],{8}8,2,
,4/5,{4}3/6,{16}7/1v4[8:1],{8},{16}6,{8},7,
6>3[8:1],7,8,1<6[8:1],2,3,4>1[8:1],5<1p5[2:1],
{4},,{8},4,3,2,
1>4[8:1],8,7,6<1[8:1],5,4,3<6[8:1],2,
1xh[1:2],{2},{8}6x,7x,8x,
{1}Cfh[1:1],
{4},,{8},4/6v8[4:1],{4},{8}3,
3V14v5[2:1],{2},{4}8-6[8:1],
{8}8-3-5-2[2:1],{2},{8}7h[4:1],{4},{8}6/4,
4/6V85v4[2:1],{2},{4}1-3[8:1],
{8}1-6-4-7[2:1],{2},{8}3V14[4:1],{4},{8}6,
6V85v4[2:1],{2},{4}1w5[8:1],
{8}1,{4},{8}5/4h,4/5h,{4},{8}4h[8:1],
{16}7h[16:3],{8},{16}1h[16:3],{8},8h[8:1],5w1[8:1],7,{4}5b,
{16}3,4,3,4,{4}5/2h[4:1],{8}6,1,{4}7/8-5[8:1],
1/8-3[8:1],7/8-5[8:1],1/8-4[8:1],{8}8/7,7V58[4:1],
{4},,{8},8x,1-4[8:1],8,
{4}7/1-6[8:1],3/1-4[8:1],7/1-5[8:1],{8}3/1,3h[8:3],
{4},{8},3/6,6/3>8[8:1],{4},{8}7<4[8:1],
7,{4},{8}2<7[8:1],,2,{4}6>3[8:1],
6,1w5[8:1],{8}1,{4},{8}2h[8:1],
{16}5h[16:3],{8},{16}3h[16:3],{8},7,8w4[8:1],2,{4}8b,
{2}6h[4:1],{16}1>4[4:1],{8},{16}7,{8},6,
{16}5<8[4:1],{8},{16}3,{8},2,{4}1h[4:1],5-3-6-2-7-1[4:5],
{1},1xw5[8:3],
{16}8<5[4:1],{8},{16}2,{8},3,{16}4>1[4:1],{8},{16}6,{8},7,
{16}8<5[4:1],{8},{16}2,{8},3,{2}4w8[8:1],
{8}6/5,6/5,4/3,4/3,2/1,2/1,8/7,8/7,
{4}1b-4[8:1]*-5[8:1],1,1b-7[8:1]*-6[8:1],1,
{8}3/4,1,6/5,8,{16}4,5,4,5,3,6,2,7,
{8}1b/8b,1b/8h[8:3],{4},{32}1x,2x,3x,4x,5x,6x,7x,8x,{4}1x/5x,
2/7-3[8:1],7/1-4[8:1],{8}5V74[4:1],6,5/4xV28[4:1],3,
{4}8>4[4:1],4<8[4:1],{8}1-5-3[4:1],2,1,8xV61[4:1],
{4}7,4-2[8:1],{8}4-7[8:1],5,4-1[8:1],3,
4,6,{16}7,8,7,8,6/1,{8},{16}5/3,{8},1/8,
{4}7/2-6[8:1],2/8-5[8:1],{8}4V25[4:1],3,4/5xV71[4:1],6,
{4}1<5[4:1],5>1[4:1],{8}8-4-6[4:1],7,8,1xV38[4:1],
{4}2,5-7[8:1],{8}5-2[8:1],4,5-8[8:1],6,
5,3,1/7,4,8/2,5,{16}1,8,1,8,
{4}2/7-3[8:1],7/1-4[8:1],{8}5V74[4:1],6,5/4xV28[4:1],3,
{4}8>4[4:1],4<8[4:1],{8}1-5-3[4:1],2,1,8xV61[4:1],
{4}7,4-2[8:1],{8}4-7[8:1],6,4-1[8:1],2,
4-8[8:1],6,4,1,{16}2,7,3,6,4,5,4,5,
{4}7/2-6[8:1],2/8-5[8:1],{8}4V25[4:1],3,4/5xV71[4:1],6,
{4}1<5[4:1],5>1[4:1],{8}8-4-6[4:1],7,8,1xV38[4:1],
{4}2,5-7[8:1],{8}5-2[8:1],3,5-8[8:1],7,
5-1[8:1],3,5/6x,7,2/8,3,{16}7,8,{8}7,
1/6,{16}7-4[8:1],8,,8,{8}7,3,{16}2-5[8:1],1,,1,{8}2,
6,{16}7-4[8:1],8,,8,{8}7,{4}3h[4:1],{8}5-8[8:1]*-1[8:1],4,
{4}5,{8}2/6,7/1,{16}7-4[8:1],8,,8,{8}7,3>1q5[8:3],
{2}3,{4}8h[8:1],7h[8:1],
{8}5/2,{16}3>8[8:1],4,,4,{8}3,7,{16}6<1[8:1],5,,5,{8}6,
2,{16}3>8[8:1],4,,4,{8}3,{4}7h[4:1],{8}2h[8:1],8h[8:1],
{2}1h[4:1],{4}8h[4:1],{8}2-6[8:1],3,
{4}2/8-4[8:1],8/1-5[8:1],1/7-3[8:1],7/1w5[8:1],
{8}1,{4},{8}5,{2}5<4[1:1]*>6[1:1],
{1},{8}2/8,
3,5,3,6/4,7,1,8,
1/7,4,8/2,5,3/6,{16}4,5,4,5,4,5,
{4}6/3>6[4:3],{2},{4}6<3[4:3],
{8}5h[2:1],{2},{8}6,6,6,
7b/8b,7b/8b,,1b/2b,{4}1b-6[8:1]/2b-5[8:1],1/2,
{8}4b/3b,3b/4b,,2/7,{16}1,8,2,7,3,6,4,5,
{8}3/6-2[8:1],7,6/4-1[8:1],3,8V61[4:1],7,8/1xV35[4:1],2,
{4}5>1[4:1],1<5[4:1],{8}4-8-2[4:1],3,4,5xV74[4:1],
6,5,1-3[8:1],2,1-6[8:1],8,1-4[8:1],2,
1,7,{16}6,5,6,5,4/7b,{8},{16}8/2b,{8},4/5b,
6/3-7[8:1],2,3/5-8[8:1],6,1V38[4:1]*V38[4:1],2,1/8xV64[4:1]*V64[4:1],7,
{4}4<8[4:1]*<8[4:1],8>4[4:1]*>4[4:1],{8}5-1-7[4:1],6,5,4xV25[4:1],
3,4,8-6[8:1],7,8-3[8:1],1,8-5[8:1],7,
8,2,4/6,1,5/3,8,{16}4,5,4,5,
{8}3/6-2[8:1],7,6/4-1[8:1],3,8V61[4:1],7,8/1xV35[4:1],2,
{4}5>1[4:1],1<5[4:1],{8}4-8-2[4:1],3,4,5xV74[4:1],
6,5,{4}1-3b[8:1],{8}1-6b[8:1],7,1-4b[8:1],3,
1-5b[8:1],7,1,4,{16}3,6,2,7,1,8,2,7,
{8}6/3-7[8:1],2,3/5-8[8:1],6,1V38[4:1]*V38[4:1],2,1/8xV64[4:1]*V64[4:1],7,
{4}4<8[4:1]*<8[4:1],8>4[4:1]*>4[4:1],{8}5-1-7[4:1],6,5,4xV25[4:1],
3,4,{4}8-6b[8:1],{8}8-3b[8:1],2,8-5b[8:1],6,
8-4b[8:1],2,{4}8/7x,{16}7,7,2,2,6,6,1,1,
{8}2/8,{16}7,4,{8}7,5/6,7/1,{16}2,5,{8}2,4/3,
2/8,{16}6,5,{8}6,4/7,{4}1b/8b,{8}3/5,2,
1/8,7,6/4,5,3/7,{16}2,1,{8}2,3/8,
{2}4/6-1V74[2:1],{4}2h[8:1],2h[8:1],
{8}7/1,{16}2,5,{8}2,4/3,2/8,{16}7,4,{8}7,5/6,
7/1,{16}3,4,{8}3,5/2,{4}8b/1b,{8}6/2,7,
{4}1/5qq5[8:3]*pp5[8:3],{2},{8}3-7[8:1],2,
{4}3b/5-1[8:1],5b/4-8[8:1],4b/6-2[8:1],6b/4w8[8:1],
{8}4b,{4},{8}8>4qq4[8:9],{2}8<4pp4[1:1]*<4pp4[1:1],
{1},{4}5h[4:1],
2h[4:1],7h[4:1],{8}1>4[4:1],1,
,8<5[4:1]*<5[4:1],{4}8,3,2,
{2}5h[4:1],4h[4:1],
3h[4:1],{4}2h[4:1]/5x<8[8:1],5x,
{8}2,1/8,7,3,{4}6/4w8[4:1],4,
,{8}2,2,5,5,3,3,
4/6,1/8,5/3,2/7,{16}1,8,1,8,{8}2b/7b,2b/7b,
