&title=Designant.
&artist=Designant.
&first=0.015
&des=O∀T
&lv_6=14+
&inote_6=(200){4},,,,1x/8x,
1xh[4:3],{8},7x,{4},6xh[8:5],
2x,{8},3x,{4},5/4,
4h[4:3],{8},6,{4},7h[8:5],
3,{8},2,{4},1bx/8bx,
8x/1x,{8},2xh[8:5],{4},7x,
6x,{8},3x,{4}4x-2[12:1],
7-4[8:1],1-4[8:1],{8},8,{4},{16}1,
7,1,7,{48}8b,7/1,2/6,3/5,{6}4,{24}4,{12},{24}4w8[8:1],{12},,,,,,,{4}6/B2,
{8}B4/E4,6,{4}B2/B1,
{8}6/E1,E2,6/E3,E4,{4}6,6/E3/B3,
6,3/B7,{8}B5/E6,3,{4}B7/B8,
3/E7/B6,3,{16}3,7,2,6,{8}1w5[8:1],2/8,
{4},8x,{8}7/B3/B4,6,{4}5h[16:3]/C,
{16}2h[8:1]/E6/B5,{8},{16}7h[16:3]/B1/E2,{4},{8}1x/8,2x,3x/7,4x,
{4}5x/6h[4:1],1b,{8}2/8,2/8,{16}3,7,4,6,
{4}5-1[8:1],5>7[8:3],{8}6,6,{4},5,
{8}3,4,{4}2/5,1/8,
{8}7-4[8:1],6,1-5[8:1],2,{4}8-4[8:1],{8}8,2,
{4}1,{8}7,8,{4}6/1,5/4,
{8}3-8[8:1],2,5-1[8:1],6,{2}4-8[8:1],
{16}6,2,6,2,7,1,7,1,{8}8-4[8:1],8,{4},
{16}3,7,3,7,2,8,2,8,{8}1-5[8:1],1,{4}5,
{16}8,4,7,3,6,2,5,1,{32}4,3,2,1,8,7,6,5,4,3,2,1,8,7,6,5,
{1}4z8[8:3],
{8}1b-5[8:1],{4},{8}6-2[8:1],,4-7[8:1],,8qq5[8:3],
,1,2,3,{4}4,4/5,
5b-1[8:1],2-6[8:1],{8},8-3[8:1],,4p2[4:1],
,5,6,7,{16}8,1,7,2,6,3,5,4,
{8}6b,7/5-1[8:1],,7-3[8:1],,2-5[8:1],,8qq5[8:3],
,4,3,2,{16}1,2,3,4,5,6,7,8,
{8}1b/7,{16}2,6,{8}4,8,7/1,{16}2,4,3,5,{8}4,
5/3,{16}6,4,{8}8-3[8:1]*-5[8:1],7/1,{4},4x,
{8}8b-4[8:1],{4},{8}2-6[8:1],,2/8-3[8:1],,8/1pp4[8:3],
,5/1,6,7,8-5[8:1]*-3[8:1],,{4}8,
4b-8[8:1],4/6-2[8:1],{8},1-6[8:1],,1/5q7[4:1],
,4/5,3,2,{16}1,8,2,7,3,6,4,5,
{8}3b,4/2-6[8:1],,2/8-4[8:1],,1-3[8:1]/8-3[8:1],,1/8qq5[8:3],
,4/8,3,2,{16}1,2,3,4,5,6,7,8,
{4}1-5[8:1],{8}1/7-4[8:1],6,7/1,2,{32}3,4,5,6,7,8,1,2,
{2}3/8q4[8:1]*p4[8:1],{16}1,8,7,6,5,4,3,2,
{8}1/5b,6/4,7-5[8:1],8/5,7-3[8:1],4,7,2,
1>4[8:1],6,1,7,{16}8,1,2,3,4,5,6,7,
{8}4x/8,3/5,2-4[8:1],1/4,2-6[8:1],5,2,7,
8<5[8:1],4,8-4[8:1],3,{4}1-6[8:1]/8-6[8:1],8/1,
{8}5x/2,{16}3,4,{8}2-6[8:1],1/5,2-4[8:1],7,{16}5,6,7,8,
{8}1x,{16}2-5[8:1],4,{8}3,2/5,{16}1,8,7,6,{4}3b/5,
{8}4x/7,{16}6,5,{8}7-3[8:1],8/4,7x-5[8:1],2,{16}4,3,2,1,
{8}8x,{16}7-4[8:1],5,{8}6,7/1,{16}8,1,2,3,{4}4/6b,
{8}7b/1b,{16}2-8[8:1],4,{8}3,2/5,,5<8[8:1],4,3,
2>5[8:1],1,8,7b-3[8:1],,7x,{4},{8}8b/2b,
{16}7-4[8:1],5,{8}6,7/1,,8>3[8:1],7,6,
5<8[8:1],4,3,2,{4}1bw5[8:1],1b,
{8}7b/1b,{16}2-5[8:1],6,{8}4,2/8,,8<5[8:1],1,2/8,
3>8[8:1],4,5/3,6b-2[8:1],,6x,{4},{8}2b/8b,
{16}7-4[8:1],3,{8}5,7/1,,1-5[8:1],8-4[8:1],1,
{4}8,{8}2-5[8:1],1,8,7-3[8:1],8,1,
{4}2b-5[8:1],8/2,{8}7,7/8-4[8:1],,8/1,
,,,{16}2,1,{8}2,3/4,2/5,6/1,
{4}8-3[8:1],7/8,{8}6,4/5-1[8:1],,5/6h[8:5],
{2},8,
{4}7b-4[8:1],1/7,{8}1,2-6[8:1],,2/1-5[8:1],
,1/8-4[8:1],,8/7-3[8:1],,7,{4},{8}4/5,
{16}7,5,{8}6,8,6/4,1,3/5,8/1,
{4}3/6<1[4:1],{8}1,2,{2}3,
8xh[4:1],{12}2,4,3,7,5,6,
{2}1xh[4:1],{12}1,3,2,8,6,7,
{2}4xh[4:1],{12}6,5,7,3,4,2,
{2}8xh[4:1],{12}1,5,3,8,4,6,
(180){2}2xh[4:1],{12}3,5,4,6,4,5,
(170)4x/6,6,6,3/5x,3,3,5x/4,6,7,8x/1,2,3,
(150)4x/6,8,2,5x/3,1,7,(130)4/6x,2/5,8,6/1,8/3,5,
(100)1/3x,4/7,2/6,5/3,1/4,5/7,3/6x,5/8,3/1,4/6,5/2,1/4,
{1}8xh[#3.387276]/Cf,
(110){2},{64}E8,B7,B6,E6,{16},,,(130){64}E1,B1,B2,E3,{16},,,(140){4}Cf,
{16}2,4,3,4,1,5,4,5,8,6,5,6,
2,4,{32}4,3,{16}4,1,7,{32}7,8,{16}7,2,5,{32}5,4,{16}5,1,6,{32}6,5,{16}6,
{4}C,{16}7,5,6,5,8,4,5,4,1,3,4,3,
7,5,{32}5,6,{16}5,8,2,{32}2,1,{16}2,7,4,{32}4,5,{16}4,8,3,{32}3,4,{16}3,
{4}C,{16}2,4,3,3,6,5,7,7,1,8,2,2,
7,3,{32}5,4,{16}5,2,6,{32}4,5,{16}4,7,3,{32}5,4,{16}5,2,6,{32}4,5,{16}4,
6bh[16:3],{8},{16}Cf,{4},{16}2bh[16:3],{8},{16}Cf,{4},8b-6b[8:1]*-5[8:1],
8b-2b[8:1]*-3[8:1],8bw4b[8:1],8b,
(150)Cf,{16}2,4,8,6,4,8,1,3,8,6,3,7,
4,5,{32}3,4,{16}3,5,4,{32}6,5,{16}6,1,8,{32}2,1,{16}2,8,1,{32}7,8,{16}7,
(155){4}C,{16}3,6,4,7,5,8,1,6,2,7,3,8,
2,5,{32}3,4,{16}3,7,4,{32}6,5,{16}6,{12}2-5[8:1],3,3,2/8b-4[25:3],7,7,
(160){4}1b/8,{16}3,4,1,8,2,1,4,5,1,6,5,8,
4,5,{32}3,4,{16}3,5,4,{32}6,5,{16}6,4,5,6,7,8/5,6,7,8,
(165)5/1h[16:3],5,,Cf,{4},{16}1/5h[16:3],1,,Cf,{4},8b-6[8:1]*v5b[8:1],
8bv3b[8:1]*-2[8:1],8bw4b[8:1],8x,
(170)Cf,{16}2,2,4,3,(175)7,7,5,6,1,8,1,8,
(180)2,6,{32}4,5,{16}4,7,3,{32}5,4,{16}5,(185)3,2,1,8,2/7,1,8,7,
(190){4}6/2b,{16}3,4,2,2,(195)6,5,7,7,1,8,1,8,
(200)2,6,{32}1,8,{16}1,7,3,{32}8,1,{16}8,(205)2,3,4,5,3/6,4,5,6,
(210){4}7/3b,{16}3,4,2,5,(215)1,6,8,7,1,8,2,1,
(220)2,3,4,5,3,4,5,6,(225)4,3,2,1,3,2,1,8,
(230){4}7/3b,{16}2,6,3,7,(235)4,8,5,1,4,8,3,7,
(240)2,3,4,5,6/1h,7,8,1,(245)2/5,4,3,2,1/4h,8,7,6,
(250){4}5/1b,{16}5,6,7,8,(255)6/1,7,8,1,{4}2/6h[400:99],
(260)2b,{16}5,4,3,2,(265)4/1,3,2,1,{4}8/4h[#0.2264252],
(270)8b,{16}1,2,3,4,(275)2/5,3,4,5,{4}6/2h[#0.2181854],
(280)6b,{16}2,1,8,7,(285)1/6,8,7,6,{4}5/1h[400:99],
(295){16}2x,{8},{16}3x,(300){8},4x,(305){16}7x,{8},{16}6x,(310){8},5x,
(315){16}2xh[16:3],{8},{16}4xh[#0.1394958],(320){8},3x,(325){16}7xh[16:3],{8},{16}5xh[#0.1352539],(330){8},6x,
(335)3x,6x,(340)3x,6x,(345)2x,7x,2x,7x,
(350){16}1b,8,1,8,1,8,1,8,1,8,1,8,1,8,1,8,
1,8,1,8,1,8,1,8,1,8,1,8,1,8,1,8,
1b,2,3,4,5,6,7,8,1,2,3,4,5,6,7,8,
1,2,3,4,5,6,7,8,1,2,3,4,5,6,7,8,
(400)E1,E2,E3,E4,E5,E6,E7,E8,B8,B1,B2,B3,B4,B5,B6,B7,
{1}B8/Ch[1:1],
,,(100){2},
{8}3h[#0.8454742],4,(110)5,6,
(120)5/6h[#0.5],4,(130){16}3,3,,8/2,(140){8}7/1,(150)8/6,(160)4h[#0.1875],(170)7,
(180){16}1,8,(185)2,7,(190)1-5[0.3095##0.1484],8,(195)3,6,(200){8}1,7,4/6,3,
{16}3-8[8:1],4,2,4,{8}3,5,{32}5/1-5[8:1],2/6,3/7,4/8,{8}5/1,1,{32}4,3,2,1,
8,7,6,5,{8}8/4,{4}2/6,{8}8,2,5/3,6,
{16}6-1[8:1],5,7,5,{8}6,4,{32}4/8-4[8:1],7/3,6/2,5/1,{8}4/8,8,{32}5,6,7,8,
1,2,3,4,{8}1/5,8/2,3/7,6/4,2,8/1,{16}7,5,
{8}6-1[8:1],7,6/2-5[8:1],3,6/2,7,8/1,{16}2,4,
{8}3-8[8:1],5/2,{4}3/4,{8}6b/4b,8,5/3,1,
7b/5b,8,5/1,2,{16}3,4,{8}3,1/7,2/8,
{16}6<1[8:1],5,7,4,{4}6b,{8}8b/2,3,5/4,6,
{16}3-8[8:1],7,1,5,{8}3,5,{32}5/1,2/6,3/7,4/8,{8}5/1,1/5,{32}4/8,3/7,2/6,1/5,
8,7,6,5,{8}8/4,{4}2/6,{8}2/8,6,4/5,3,
{16}6-1[8:1],2,8,4,{8}6,4,{32}4/8,7/3,6/2,5/1,{8}4/8,8/4,{32}5/1,6/2,7/3,8/4,
1,2,3,4,{8}1/5,6/4,2/1,5/3,2,1/8,{16}7,5,
{8}6-1[8:1],7,6/2-5[8:1],3,6/2,7,8/1,{16}2,6,
{8}4-7[8:1],5/2,{4}3/4,{8}8/2,6,{16}3>8[8:1],5,1,7,
{8}3,5,{16}6<1[8:1],4,8,2,{8}6,4,3,2,
{16}1,8,3,6,2,7,4,5,{8}1h[8:1],{16}7,8,6,2,1,3,
7b,4,6,2,5b,1,7,8,6,4,5,3,1b,2,8,4,
5,3,6,2,{8}7,1b/8b,{16}1,5,2,4,{8}3h[8:1],{16}6,4,
6,4,{8}8h[8:1],{16}1,7,2,6,{8}3,{16}6,4,{8}5,{16}3,4,
3,2,1,8,4,5,6,7,{8}8h[8:1],{16}2,1,3,7,8,6,
2b,5,3,7,4b,8,2,1,3,5,4,6,8,7,1,5,
4b,6,3,7,{8}2,1b/8b,{16}2,1,3,8,{8}4,{16}8,1,
7,2,{8}6,{16}6,5,7,4,{32}8b/3,7,6,5,{8}4,{32}7/1b,2,3,4,{8}5,
{32}8/3,7,6,5,4,3,2,1,8/4,7/3,6/2,5/1,4/8,3,2,1,{8}8/4,{4},{16}8/1,8/1,
2/7,{8},{16}6h[8:1]/C,{8},2h[8:3]/C,{4},1b-6[4:5]*q4b[4:5],
