&title=いますぐ輪廻
&artist=なきそ
&first=0.05
&des=MXCustard
&lv_5=13+
&inote_5=(145){4},1,{8}2/8<5[8:1],4>1[8:1],{4}2h[8:1],
{8},5,3,1,8/7-3[8:1],4/5-1[8:1],7,5,
,6/5,7,3/4,2-4[16:1],1,8,{16}6,6,
,4h[16:3],{8},6-8[16:1],8,2,{16}4,4,,7,3>7>3[4:1],6,
{8},5,{4}5,{8}2/8<5[8:1],4>1[8:1],{4}2h[8:1],
{8},4,6,8,1/2-6[8:1],5/4-8[8:1],2,4,
,,,{16}3,4,{8}2,{4},{16}3,4,
{4}1-5[8:1],A1,{8}4b/6b,{16}6,5,{8}7,{16}7,5,
{8}6,4,{16}3,4,{8}2,5/3,{16}3,4,{8}2,{16}2,4,
{8}3,5,{16}6,5,{8}7,4/6,{16}6,5,{8}7,{16}7,5,
{8}6,4,{16}3,4,{8}2,5/3,{16}3,4,{8}2,{16}3,4,
{8}2,3/5,{4}4/6-4[16:1],{8}3b,{16}3,4,{8}2,{16}2,4,
{8}3,5,{16}6,5,{8}7,4/6,{16}6,5,{8}7,{16}7,5,
{8}6,4,{16}3,4,{8}2,5/3,{16}3,4,{8}2,{16}2,4,
{8}3,5,{16}6,5,{8}7,4/6,{16}6,5,7,8,6,5,
{8}8,4/6V47[4:1],5/3,2h[8:1],,,,{16}4,6,
{8}6,{16}5,7,{8}7,{16}6,8,{8}5h[8:1],{16}1,1h[8:1],,3h[8:1],,5h[16:3],
{4},{32}B3,B4,{16},,,{8}7,8<5[8:1],1,2,
3,4>1[8:1],5,6,7,8,1,2,
{2}3-1[8:1]/8-4[8:1],{16}1,4,2,5,,3/6,,4/7V52[8:1],
{2},{8}2/5,4/3,{16}5,3,3,4,
,2,{8},{16}3-5[16:1],{8},{16}2,{4},{16}7-5[16:1],{8},{16}8,
{8},2,8,6,{16}1,8,2-5[8:1],7,{8}1,{16}4,4,
{8},6,7,8,{16}2,1,2,1,2,8,2,4,
{8},5,{16}5,4,{8}6pp8[8:1],,2,1,{16}7,7,
{8},3,2,1,{16}7,8,7,8,7,1,7,5,
{8},4,{16}4,5,{8}3qq1[8:1],,7,8,{16}2,2,
{8},7,8,{16}2,1,2,1,2,8,2,4h[8:1],,6,
{8},7,8,{16}2,1,2,1,2,8,2,4h[8:1],,6,
{8},,,3,{2}4/Ch[4:7],
{8}5,{4},{8}4,,4,3,2,
{2}1-5[8:1],{8}2b/8<5[8:1],4>1[8:1],{4}2h[8:1],
{8},5,3,1,8/7-3[8:1],4/5-1[8:1],7,5,
,6/5,7,3/4,2-4[16:1],1,8,{16}6,6,
,4h[16:3],{8},6-8[16:1],8,2,{16}4,4,,7,3>7>3[4:1],6,
{8},5,{4}5,{8}2b/8<5[8:1],4>1[8:1],{4}2h[8:1],
{8},4,6,8,1/2-6[8:1],5/4-8[8:1],2,4,
,,,{16}6,5,{8}8,{4},{16}6,5,
{4}7-3[8:1],A7,{8}4/6,{16}6,5,{32}7,8x,1x,2x,3x,4x,5x,6x,
{8}7x,2,3/5,{16}5,3,{8}3,{16}4,2,{8}2,{16}3,1,
{8}4h[8:1],{16}8,8h[8:1],,6h[8:1],,4h[16:3],{4},{32}B6,B5,{16},,,{8}2,
1>4[8:1],8,7,6,5<8[8:1],4,3,
2,1,8,7,{2}6-8b[8:1]/1-5b[8:1],
C/1?v3[8:1],C/1?v4[8:1],
{8}5b/3b,{16}3,5,{8}4,{16}4,5,{8}3,5,{16}6,5,{8}7,
4b/6b,{16}6,4,{8}5,{16}5,4,{8}6,4,{16}3,4,{8}2,
5b/3b,{16}3,5,{8}4,{16}4,5,{8}3,5,{16}6,5,{8}7,
4b/6b,{16}6,4,{8}5,{16}5,4,{8}6,4/6,{4}5/3-1b[16:1],
{8}3b,{16}5,5,{8}4,{16}3,3,{8}4,5,{16}6,5,{8}7,
6b/4b,{16}4,4,{8}5,{16}6,6,{8}5,4,{16}3,4,{8}2,
3b/5b,{16}5,5,{8}4,{16}3,3,{8}4,5,{16}6,5,{8}7,
6b/4b,{16}6,5,7,8,6,5,{8}8pp4[4:1]*pp3[4:1],4,{4}8,
{2}1?v8[8:1],C/1?v6[8:1],
C/1?v4[8:1],C/1?v3[8:1],
A4/1?v7[8:1],E6/1?-5[8:1],
A8/1?v4[8:1],B3/1?v2[8:1],
{4}3,3,3,3,
5,5,5,5,
7/Ch[2:1],7,{8},{16}8-4[8:1],7,6-2[8:1],5,{8}8,
{4}6b,{8}3/1v4[8:1],4V28[8:1],1/7,{16}6,6,,5,{8}5,
8/6,1/7,{16}2,8,3,1h[16:5],{8},{16}7,6,5,4,3,2,
{8}1/7,{16}6,5,7,8,6,5,7,4,6-4[8:1],3,{4},{8}1,
{16}5,5,,2,6<2<6[4:1],3,{8},4,{4}4,
{16}4,6,4,6h[8:1],{8}3,{16}2,5,2,5,2,5h[8:1],{8}2,{16}1,4,
8,4,8-4[8:1],4,{8}8,{16}7,7,{8},,,{16}6,5,
{4}8h[2:1]/7?z3b[12.8276##0.2069],6h[4:1],,8b/2b,
{8}5/3-1[8:1],6,3/7-5[8:1],8,7/2-4[8:1],1,2/6-8[8:1],7,
6/3-5[8:1],4,3/7-1[8:1],8,7/2>4[8:1],3,2/6-8[8:1],7,
6-4[8:1],1,6/2-8[8:1],3,2-4[8:1],6,7/2,6,
7<1[8:3],5>1[4:1],{4}3>7[16:5],1,4-6[8:1]*-2[8:1],
4,8V24[4:1],{8}5,6,7,8<6[8:1]*-6[8:1],
,8-2[8:1]*>2[8:1],,8,,{16}3,4,5,6,7,8,
{8}1-3[8:1],{4},{16}5,6,{4}7-3[8:1],A7,
E
