&title=We Luv Lama 200
&artist=DJ Sharpnel
&first=0.609
&des=
&des_2=Ki2317 fused with Python3.9
&des_3=Ki2317 fused with Python3.9
&des_4=Ki2317 fused with Python3.9
&des_5=Ki2317
&des_6=Ki2317 fused with Python3.9
&lv_2=14+
&lv_3=14+
&lv_4=14+
&lv_5=15
&lv_6=14+
&inote_2=(200)
{8}1b/8b,2b/7b,
{2}3b/6b,2b/6b,
{1}4b/8b,
{8},,,,2,6,3,7,
{16}
2b,6,2,7,4,7,2,6,4,8,1,5,1,8,2,8,
4b,6,4,5,4,8,4,5,1,7,2,8,4,8,3,7,
3b,7,1,7,2,6,1,8,1,8,4,5,4,8,4,8,
3b,6,2,6,2,5,3,6,3,5,1,7,4,8,4,5,
4b,8,2,8,1,6,1,8,1,5,1,6,4,8,3,6,
3b,7,1,8,4,7,3,7,3,5,1,5,3,5,1,8,
1b,8,1,7,1,7,1,7,1,8,3,5,4,6,4,8,
2b,8,1,5,1,5,2,5,2,5,3,7,3,7,4,5,
1b,8,1,7,3,7,2,8,2,5,4,7,2,7,4,7,
2b,7,3,6,4,8,4,5,1,6,3,6,4,6,2,8,
1b,8,1,6,4,8,2,7,3,7,3,7,4,6,2,8,
3b,8,2,8,4,8,3,8,2,6,3,7,2,6,2,5,
3b,7,1,5,2,8,2,7,2,6,4,7,4,5,3,5,
1b,6,2,7,2,7,2,6,4,8,1,5,4,6,4,8,
4b,5,4,8,2,5,3,5,4,7,2,7,1,7,2,7,
3b,7,2,5,4,5,2,7,2,6,2,7,4,5,3,8,
1b,5,1,5,4,6,2,8,3,5,3,8,1,5,4,6,
2b,7,2,7,1,5,1,7,1,5,2,5,2,5,4,5,
3b,5,4,5,3,8,1,7,3,7,3,6,3,8,2,6,
1b,5,4,5,4,8,3,7,4,8,1,5,3,7,1,6,
4b,5,4,8,2,8,3,7,3,6,4,5,1,7,1,7,
3b,8,4,8,1,6,1,6,2,6,3,8,2,8,1,6,
4b,5,2,8,4,5,1,5,4,6,2,8,4,8,1,5,
4b,6,2,8,3,8,2,5,2,5,1,5,1,6,4,8,
2b,5,1,5,4,7,2,7,2,8,4,6,1,7,3,5,
2b,6,3,6,3,8,1,7,3,5,2,7,3,8,4,5,
3b,8,1,7,2,6,2,7,1,5,3,6,3,8,4,8,
1b,7,3,6,4,5,1,6,3,7,3,8,2,8,3,6,
1b,7,1,8,3,7,4,5,2,8,1,8,2,7,2,5,
2b,7,4,7,4,5,1,7,2,8,1,7,2,8,2,6,
1b,7,2,5,2,8,4,5,1,7,3,8,2,7,2,5,
1b,8,3,6,3,5,2,6,2,8,2,6,1,6,1,6,
4b,8,2,5,1,8,3,6,4,7,4,5,3,8,2,7,
2b,6,3,8,3,7,3,8,1,6,2,6,4,7,1,5,
4b,5,3,8,2,7,3,5,2,7,1,6,3,5,1,7,
1b,8,1,6,3,8,4,5,2,7,3,6,1,7,2,7,
1b,6,2,5,1,8,2,5,3,7,2,6,3,7,2,5,
4b,7,2,5,4,6,2,5,3,8,1,6,2,7,4,5,
3b,8,2,5,3,6,1,8,2,6,3,8,3,8,4,7,
3b,6,1,6,2,6,1,8,4,7,4,6,3,6,1,6,
1b,6,4,7,3,5,4,8,1,6,1,5,4,5,3,6,
3b,6,1,6,1,5,2,6,4,7,4,5,2,6,2,8,
4b,6,3,7,1,5,4,7,4,7,4,7,3,7,1,5,
3b,7,1,7,1,7,2,5,4,5,2,7,4,8,3,7,
4b,5,1,8,2,8,3,7,4,8,4,8,2,7,3,7,
3b,8,4,6,1,6,2,7,4,7,3,8,3,7,1,8,
4b,7,1,7,4,7,1,7,4,5,4,7,2,8,4,8,
1b,7,4,6,3,5,2,8,4,6,1,6,4,6,2,7,
4b,8,4,5,3,6,2,5,1,6,1,6,3,7,1,6,
2b,8,1,6,2,7,3,5,4,8,1,7,3,8,1,8,
1b,8,4,7,4,8,1,5,1,5,3,7,4,8,4,8,
4b,6,4,8,2,5,2,5,4,5,1,6,1,6,3,5,
3b,8,3,8,3,7,2,6,4,6,1,6,1,7,2,7,
2b,6,4,5,1,7,3,8,2,5,4,8,2,7,2,5,
1b,8,1,7,3,7,3,5,4,7,4,8,3,8,4,5,
3b,7,4,5,4,6,2,6,3,8,4,8,3,8,4,5,
3b,8,1,7,1,6,2,7,3,8,4,7,1,5,1,6,
1b,7,1,5,4,5,3,8,2,6,1,5,1,5,3,7,
2b,5,4,8,4,5,2,5,1,8,3,8,2,8,1,7,
2b,8,1,5,3,5,4,8,2,6,3,8,3,6,4,7,
1b,7,1,8,2,6,2,6,3,8,3,5,2,5,4,6,
1b,8,2,7,3,5,2,8,3,5,1,7,3,7,3,8,
4b,5,2,6,2,5,1,5,2,5,1,5,3,5,2,8,
1b,5,3,5,1,5,1,6,1,6,1,7,2,7,2,7,
2b,7,1,7,2,7,1,7,1,7,3,7,1,5,2,5,
1b,5,3,5,2,7,1,8,1,7,1,6,2,5,1,5,
4b,8,1,5,2,7,4,7,3,7,1,6,2,7,4,6,
4b,7,3,6,4,6,1,5,3,7,2,8,3,8,1,7,
4b,5,4,7,4,6,1,7,2,7,2,8,3,8,2,6,
4b,5,4,8,2,8,3,5,2,5,2,6,3,6,2,6,
4b,5,3,5,1,8,4,8,2,5,1,8,1,7,1,5,
2b,8,2,7,4,8,2,6,2,7,1,8,2,7,2,5,
4b,8,4,5,2,6,4,7,4,8,4,7,4,7,4,6,
1b,7,3,5,1,6,3,5,2,5,2,7,2,5,3,8,
1b,5,4,6,4,7,3,7,3,7,2,7,2,8,4,6,
2b,6,2,7,1,8,2,5,4,7,4,7,3,6,3,6,
3b,7,4,7,2,6,1,5,1,7,3,8,4,7,1,5,
4b,8,4,5,3,8,4,6,1,5,2,5,1,6,1,8,
4b,6,4,8,2,7,3,6,3,8,4,7,4,6,4,8,
3b,8,4,6,4,5,1,6,2,7,1,5,1,6,2,6,
1b,7,3,6,1,5,1,8,1,6,3,8,2,5,4,5,
3b,8,3,8,2,6,2,6,4,7,3,6,2,6,3,6,
2b,5,3,6,1,8,4,6,3,5,3,7,4,5,4,8,
2b,6,4,6,1,5,4,5,3,5,3,5,1,8,2,8,
3b,7,4,5,2,8,2,6,4,6,1,7,3,7,3,7,
4b,6,4,6,4,7,2,7,1,7,1,5,1,7,4,6,
2b,8,1,7,1,6,3,8,3,6,2,5,3,5,2,7,
3b,7,4,7,2,8,3,6,2,5,1,5,2,5,4,5,
4b,5,4,5,2,7,3,6,1,7,2,8,3,6,2,6,
4b,5,4,8,1,7,3,6,3,7,3,6,3,7,3,6,
1b,8,3,7,4,7,2,5,3,7,2,7,3,8,1,6,
4b,8,2,6,4,8,1,6,2,5,1,5,1,7,1,5,
3b,8,1,5,4,5,1,7,4,6,1,6,1,5,4,7,
4b,8,3,6,1,7,1,8,2,7,1,5,1,8,1,5,
3b,6,1,7,3,6,4,7,4,6,3,6,3,8,1,5,
2b,7,4,5,4,7,3,6,4,8,3,5,2,5,2,7,
3b,8,4,8,2,7,4,6,2,8,3,5,1,6,1,6,
4b,6,1,7,2,7,3,8,3,8,1,7,4,6,1,6,
1b,6,3,8,4,6,4,5,3,5,4,7,2,7,2,6,
3b,5,1,5,1,5,2,6,3,6,2,8,4,5,2,6,
3b,7,3,8,3,7,1,5,1,8,4,5,4,7,4,6,
1b,8,3,8,3,7,2,6,4,6,2,5,3,7,1,5,
4b,6,1,5,2,7,1,6,1,7,1,8,4,6,2,6,
4b,7,2,7,4,5,4,8,4,6,4,7,1,6,3,6,
1b,6,4,6,1,7,3,7,1,7,2,7,2,7,4,7,
2b,6,4,7,4,6,3,7,3,6,2,6,1,6,4,6,
1b,8,1,5,2,7,4,8,3,5,4,7,1,5,1,5,
2b,7,1,5,1,8,1,5,3,8,4,7,3,7,1,8,
4b,5,1,7,4,6,3,7,3,7,1,7,1,8,2,7,
4b,8,3,8,4,8,1,7,1,6,1,6,4,7,2,5,
4b,7,4,7,3,6,3,8,3,7,1,6,4,5,1,8,
3b,5,3,5,2,7,2,7,4,5,1,5,2,7,2,8,
4b,5,3,5,4,8,3,5,4,5,3,7,1,7,3,8,
1b,5,3,8,4,7,4,5,3,8,3,5,3,5,3,6,
1b,7,1,6,3,8,1,7,4,7,1,5,2,5,3,5,
3b,8,1,7,4,5,1,6,2,8,4,8,1,5,3,5,
4b,7,4,5,1,8,4,5,4,5,1,8,2,8,4,7,
3b,5,3,8,1,7,3,7,2,6,4,6,1,6,1,8,
4b,6,4,5,2,5,3,7,1,5,3,7,1,5,3,7,
2b,5,2,6,4,7,3,5,4,6,4,6,4,6,2,8,
3b,8,4,7,3,5,4,7,1,7,1,8,4,6,1,7,
2b,6,4,7,2,8,1,8,2,6,4,8,4,8,3,8,
4b,7,1,8,2,6,2,7,2,6,3,8,4,5,3,8,
1b,5,1,5,4,7,1,8,2,7,1,8,3,6,2,5,
2b,6,3,5,3,6,2,8,2,5,1,5,4,7,2,6,
2b,8,2,7,3,8,1,6,3,7,4,6,4,5,4,5,
2b,7,1,6,3,5,3,6,3,6,1,7,4,7,2,7,
4b,7,2,6,4,5,3,6,3,8,2,5,3,5,2,6,
4b,5,4,6,2,8,3,7,2,8,2,5,2,7,2,7,
1b,8,3,5,1,8,2,5,1,5,4,7,3,6,4,5,
4b,6,4,5,3,5,3,8,2,5,4,8,3,6,4,5,
1b,8,1,8,2,8,4,7,2,8,3,6,2,8,1,6,
1b,8,1,8,1,6,3,6,1,5,1,6,1,8,4,6,
2b,5,4,7,3,8,1,8,1,8,1,8,1,5,1,8,
1b,7,3,8,3,6,1,7,3,7,1,8,1,8,3,8,
1b,5,4,8,2,6,2,5,3,8,1,5,2,5,1,6,
1b,8,1,5,1,6,1,8,1,6,3,6,2,7,2,6,
1b,5,4,6,4,6,3,6,1,5,3,6,1,5,1,6,
3b,5,3,6,3,8,3,7,2,7,3,7,1,5,3,6,
2b,6,4,8,4,5,2,8,4,5,1,6,2,6,3,8,
2b,8,4,8,1,5,3,6,4,5,4,6,3,5,4,8,
3b,5,4,5,2,5,1,6,2,7,4,6,4,7,3,8,
4b,5,3,5,4,8,1,6,1,5,1,5,3,5,3,5,
3b,8,4,5,4,8,3,7,2,7,2,6,3,6,1,5,
4b,8,3,6,2,8,4,7,1,8,2,6,4,6,3,6,
1b,6,2,5,1,8,4,8,1,6,3,5,1,6,1,8,
3b,5,1,8,4,5,2,6,3,8,4,6,2,6,1,7,
1b,6,2,6,4,8,1,8,3,6,2,7,2,7,3,5,
1b,6,4,7,2,5,3,8,3,6,4,5,3,8,2,8,
1b,5,2,6,1,7,4,8,3,6,1,5,1,7,1,8,
2b,5,2,8,4,6,1,7,2,8,1,8,4,8,2,5,
3b,6,1,8,3,8,4,7,4,7,1,5,4,6,3,5,
4b,8,2,5,1,7,4,7,4,5,3,5,3,5,3,6,
1b,7,1,7,2,7,3,6,3,5,1,6,4,6,1,5,
4b,6,2,6,3,6,1,6,1,6,4,7,3,7,3,6,
2b,7,2,8,2,7,2,6,2,8,3,5,3,5,1,8,
2b,5,3,5,2,7,4,7,1,7,1,7,1,8,1,8,
1b,7,2,7,4,7,3,6,1,6,3,7,4,6,4,8,
1b,8,4,8,2,6,1,5,2,7,2,6,3,8,3,6,
1b,7,1,8,3,6,3,8,1,8,3,6,3,8,1,5,
2b,5,1,8,2,6,2,6,3,7,4,8,2,7,2,5,
1b,6,4,7,2,5,2,5,3,7,2,6,4,7,3,6,
3b,5,3,5,3,8,3,6,1,6,1,8,4,5,1,6,
4b,7,3,5,2,8,4,8,2,8,4,8,1,8,1,8,
1b,,,,,,,,,,,,,,,,
E
&inote_3=(200)
{8}1b/8b,2b/7b,
{2}3b/6b,2b/6b,
{1}4b/8b,
{8},,,,2,6,3,7,
{16}
3b,6,1,8,2,6,2,7,2,6,4,7,4,5,1,8,
2b,6,3,8,4,6,1,5,1,5,1,8,2,5,3,8,
2b,6,2,7,2,8,2,6,4,5,1,5,3,8,1,7,
1b,7,2,6,4,5,1,6,3,5,2,8,4,6,2,7,
4b,8,3,7,2,7,3,8,2,5,2,8,4,5,3,5,
3b,5,2,5,3,8,2,6,4,6,4,8,3,5,4,7,
2b,6,3,6,1,7,2,6,4,5,4,6,2,5,2,5,
4b,7,3,8,1,5,2,5,1,7,4,6,3,5,3,7,
1b,5,1,8,4,7,2,8,3,8,1,5,3,8,1,6,
4b,6,4,6,1,5,1,7,4,8,4,5,4,7,3,5,
4b,7,1,8,3,8,3,6,4,5,4,8,3,7,3,7,
1b,7,2,7,2,6,3,6,3,8,3,5,1,5,3,6,
2b,5,1,6,1,8,4,8,2,8,3,6,1,6,2,7,
4b,6,2,8,2,7,4,8,1,6,3,5,4,6,2,8,
1b,6,2,6,2,8,4,5,2,6,1,5,2,7,1,7,
1b,6,1,7,1,7,3,8,4,6,1,6,4,6,1,6,
4b,5,2,8,1,6,3,8,1,5,4,7,1,5,4,6,
4b,7,3,5,4,6,2,8,1,5,2,6,4,8,1,8,
3b,7,1,6,1,7,3,8,3,7,2,7,4,5,3,5,
3b,5,3,6,4,6,2,6,1,8,1,5,2,5,2,5,
2b,6,2,8,3,5,2,7,1,8,1,8,1,8,2,5,
1b,6,4,7,2,8,2,6,1,5,3,7,2,6,2,6,
2b,8,2,8,1,6,2,8,3,5,1,5,4,8,2,7,
1b,6,4,7,1,7,3,7,2,6,4,8,2,8,3,6,
3b,7,2,7,1,7,3,8,3,8,2,5,3,5,4,7,
1b,5,4,5,1,5,3,8,3,8,1,5,2,7,4,5,
2b,8,4,8,1,8,2,8,2,6,2,7,2,5,2,7,
2b,8,2,5,1,5,2,6,3,7,3,8,1,7,1,7,
1b,7,1,7,2,5,2,6,1,8,2,7,1,5,1,5,
4b,7,3,6,4,8,2,6,3,7,4,5,1,8,1,5,
2b,5,1,5,2,6,1,8,3,6,3,5,4,5,3,6,
2b,8,4,6,2,8,2,6,1,8,2,7,1,8,1,8,
1b,7,2,8,3,5,2,6,1,6,3,8,1,6,3,5,
4b,8,3,8,4,5,4,5,4,7,1,7,2,5,4,7,
1b,5,2,5,4,7,3,5,2,6,4,5,3,8,1,6,
3b,8,2,6,2,7,2,6,4,6,3,7,1,6,4,6,
3b,8,4,7,2,8,3,7,2,8,3,5,3,6,1,5,
2b,8,3,5,1,6,1,5,4,7,3,8,2,8,3,7,
3b,5,2,6,3,6,1,7,4,8,1,6,2,7,4,8,
1b,8,4,8,4,6,1,6,3,7,4,7,2,8,1,6,
2b,7,2,6,4,5,2,7,2,6,3,6,4,6,1,7,
1b,6,2,7,2,6,3,6,2,7,4,7,4,5,2,6,
3b,5,2,6,4,8,2,8,4,7,2,8,2,6,3,6,
1b,6,2,8,3,6,2,6,4,7,1,8,2,8,4,6,
3b,5,1,5,2,7,4,8,4,8,2,8,4,5,3,7,
3b,5,1,6,1,7,2,8,1,7,4,5,1,7,1,8,
1b,7,1,5,3,6,3,5,3,6,3,5,1,6,2,8,
3b,8,2,7,4,8,1,7,1,6,2,7,3,8,1,8,
2b,5,3,7,4,5,1,6,1,5,3,7,1,5,3,6,
2b,7,1,7,1,7,1,6,4,6,2,8,1,8,3,8,
1b,7,4,7,3,5,4,8,1,6,1,6,1,8,2,7,
3b,7,4,8,3,6,4,6,3,5,4,5,2,7,1,7,
2b,7,4,8,2,8,3,7,1,5,4,8,2,6,3,6,
4b,5,1,6,2,6,2,6,4,7,2,7,4,7,3,6,
3b,6,4,8,2,8,1,8,1,5,2,7,1,7,4,8,
1b,8,4,7,4,6,3,6,3,7,2,6,4,8,3,5,
2b,8,4,8,2,6,2,7,4,6,2,6,1,5,1,7,
1b,8,2,8,2,6,2,6,3,5,2,5,1,8,3,7,
2b,7,1,7,3,5,2,8,2,6,4,8,3,8,2,8,
3b,5,4,5,1,8,2,7,3,7,3,5,2,8,1,7,
1b,8,4,8,3,7,3,5,1,6,2,7,2,6,1,5,
2b,8,1,6,1,5,1,5,1,6,4,8,2,6,4,6,
2b,8,1,7,2,5,3,8,1,5,3,6,2,7,4,7,
2b,8,1,6,2,8,3,7,3,5,2,5,2,8,1,6,
2b,8,4,5,4,6,2,6,1,6,2,7,3,6,4,8,
4b,7,2,6,2,7,2,6,3,6,4,8,1,7,2,5,
2b,5,1,8,1,7,3,6,2,8,1,5,1,8,2,8,
4b,5,3,8,2,7,2,8,2,8,4,8,2,8,1,6,
4b,7,2,8,3,7,1,5,4,7,1,6,3,8,3,8,
2b,7,2,8,2,5,1,7,2,8,2,5,4,8,3,8,
3b,7,1,7,4,7,1,7,4,6,1,5,4,6,3,5,
4b,6,1,7,4,8,4,6,3,8,4,7,4,8,4,7,
2b,7,3,5,3,5,1,8,3,6,1,5,4,5,1,7,
3b,7,3,5,1,8,3,5,4,8,1,7,2,8,2,8,
3b,5,3,5,3,8,4,5,1,8,3,5,2,6,1,5,
3b,8,3,5,4,5,2,5,2,8,2,7,1,8,2,8,
2b,6,3,6,2,8,1,8,2,7,3,6,2,8,4,7,
4b,7,1,6,1,8,2,7,1,8,4,6,1,7,1,5,
2b,5,2,8,3,8,1,8,2,7,3,5,2,6,1,7,
3b,7,2,7,3,8,3,7,4,8,2,7,1,7,4,8,
3b,7,2,5,3,5,1,5,1,7,1,5,2,7,4,8,
4b,5,3,7,2,6,3,6,1,8,1,5,1,6,4,6,
1b,6,4,8,4,6,2,8,1,7,2,8,1,7,1,6,
4b,7,3,7,2,8,1,6,3,7,1,5,4,5,2,7,
3b,7,2,5,2,7,3,8,1,7,3,7,2,5,4,7,
4b,8,2,8,4,7,3,7,4,8,2,5,3,7,4,6,
2b,8,3,8,1,7,4,6,4,5,4,6,2,7,1,7,
2b,8,4,8,1,5,1,7,4,7,1,6,2,5,1,6,
1b,7,1,8,1,6,2,5,1,5,1,8,1,8,2,5,
4b,7,4,8,1,6,1,7,3,8,1,8,4,8,1,8,
4b,7,3,8,4,8,1,8,4,7,4,8,3,7,1,5,
3b,7,4,6,3,7,4,8,1,6,4,8,2,8,1,6,
2b,7,1,7,4,6,3,6,2,7,2,6,4,7,4,5,
4b,8,4,7,3,7,2,8,4,7,2,5,3,7,1,7,
1b,7,3,8,2,6,1,5,3,8,2,8,4,6,3,6,
4b,7,4,6,1,8,1,7,3,6,3,8,2,6,1,5,
1b,8,3,8,2,6,4,8,4,8,1,6,4,8,2,7,
3b,8,3,6,3,5,1,7,3,6,1,7,1,7,3,5,
1b,7,2,8,1,8,3,6,2,7,3,6,3,7,3,8,
4b,7,2,8,4,8,2,7,1,7,2,5,3,8,1,7,
1b,7,1,8,4,6,1,7,1,7,3,7,4,7,2,7,
4b,5,1,6,2,7,1,5,2,5,4,7,4,7,3,7,
3b,8,4,6,4,7,2,6,1,7,1,7,4,6,1,6,
1b,6,1,8,2,5,1,6,4,6,4,5,1,6,1,5,
2b,6,4,5,2,6,1,8,3,8,4,6,4,6,4,8,
3b,5,1,7,3,5,3,6,1,7,1,6,1,6,1,8,
4b,6,3,6,2,5,1,8,2,5,4,7,4,7,2,6,
2b,7,1,6,4,8,4,6,3,7,1,8,3,7,3,6,
4b,5,4,7,1,7,3,8,3,8,2,6,1,8,2,7,
1b,7,3,8,2,6,4,8,3,8,3,5,3,7,3,5,
1b,8,1,8,2,6,3,6,2,6,4,8,4,8,1,5,
3b,7,2,5,3,8,1,6,4,5,2,5,3,6,2,7,
4b,8,4,7,4,6,4,8,2,7,2,8,4,5,2,8,
3b,7,3,5,3,5,3,6,2,5,4,5,2,5,2,8,
1b,6,2,8,3,8,2,6,3,6,3,8,1,5,3,5,
4b,7,2,8,3,5,1,6,2,5,1,7,3,6,2,5,
2b,5,2,7,2,8,1,5,4,5,4,7,4,7,3,8,
2b,8,1,7,3,7,1,5,3,8,4,5,2,7,4,6,
4b,6,3,8,4,8,3,6,3,5,2,7,4,6,4,5,
1b,8,4,8,2,6,3,5,4,5,3,5,3,7,3,5,
4b,8,3,7,2,6,2,8,2,7,4,8,1,6,3,5,
1b,8,4,6,4,6,4,8,1,5,2,6,4,6,3,6,
4b,7,1,8,4,8,3,6,1,8,2,8,2,6,3,5,
1b,7,4,6,3,8,1,7,2,6,2,6,1,5,2,5,
2b,7,1,7,3,7,2,7,1,6,2,7,2,6,4,8,
4b,6,3,7,2,5,4,7,4,8,3,7,2,5,1,8,
2b,6,1,6,4,6,2,8,1,7,2,5,2,8,3,5,
4b,7,2,8,2,8,2,7,3,6,1,5,2,5,3,7,
1b,7,3,8,3,5,4,7,1,8,2,7,3,8,1,8,
2b,7,2,5,1,7,3,8,4,7,1,8,4,5,4,6,
1b,5,4,6,1,6,4,8,2,7,4,8,3,5,3,6,
1b,5,4,6,1,6,1,7,3,7,2,5,1,7,2,7,
3b,5,2,5,4,5,3,5,3,8,1,8,2,5,1,8,
4b,8,1,6,2,8,4,6,2,7,3,8,2,8,4,5,
2b,7,4,7,3,8,3,8,4,6,4,8,1,7,2,6,
1b,8,2,5,2,5,2,7,3,7,4,6,1,7,3,8,
3b,7,3,7,1,8,1,6,4,7,1,8,4,8,3,8,
4b,7,1,5,1,5,1,5,3,5,2,7,4,8,2,5,
1b,5,1,7,3,8,1,6,3,6,3,6,1,8,4,7,
2b,8,2,7,1,6,2,7,2,5,3,6,4,6,3,6,
3b,5,2,7,3,6,1,6,2,5,4,5,1,5,2,7,
4b,5,1,8,3,6,2,7,1,6,2,7,4,5,4,5,
1b,8,1,6,4,7,3,7,4,6,2,5,4,7,2,8,
3b,6,4,5,2,5,2,6,4,8,2,8,4,6,2,8,
3b,5,2,6,4,7,2,7,4,6,4,7,3,8,2,8,
4b,8,3,8,4,8,2,6,4,7,2,7,3,7,1,8,
3b,8,1,5,1,7,3,5,4,5,3,8,1,7,4,8,
1b,7,2,7,2,5,3,5,1,6,1,7,3,5,3,8,
3b,8,3,8,1,6,2,5,1,6,2,8,2,8,2,7,
2b,8,4,8,2,7,4,8,4,5,2,7,1,5,3,5,
3b,6,4,8,2,8,1,5,2,6,1,8,2,5,1,7,
3b,7,1,5,1,7,4,6,3,5,2,7,4,5,3,8,
4b,8,1,8,3,6,4,7,3,7,2,5,3,5,4,6,
2b,7,4,6,2,7,1,8,2,5,4,5,2,6,2,5,
1b,5,1,8,4,7,1,6,1,7,3,5,3,5,2,7,
4b,8,4,7,1,6,1,6,1,6,4,8,2,5,4,8,
4b,5,4,6,4,8,2,7,4,8,4,6,2,5,1,6,
2b,5,2,6,1,7,4,6,1,5,3,8,4,5,1,5,
2b,5,1,6,1,6,1,8,4,8,3,5,3,7,2,5,
4b,5,1,6,3,7,3,8,3,6,1,6,2,5,2,5,
1b,8,1,8,2,6,2,6,1,8,4,7,4,7,1,8,
1b,5,4,8,3,5,4,6,2,8,2,7,4,7,1,8,
2b,6,2,5,1,5,4,8,2,6,4,8,2,7,2,6,
2b,5,2,6,3,5,4,5,3,6,2,8,2,6,1,5,
1b,,,,,,,,,,,,,,,,
E
&inote_4=(200)
{8}1b/8b,2b/7b,
{2}3b/6b,2b/6b,
{1}4b/8b,
{8},,,,2,6,3,7,
{16}
1b,6,2,6,2,5,4,8,2,5,1,5,2,6,1,5,
4b,7,1,7,1,8,4,6,3,7,2,8,1,8,4,7,
4b,6,4,6,4,5,2,8,4,5,3,5,1,7,3,5,
4b,7,4,8,4,8,4,8,3,5,4,7,3,7,4,6,
3b,7,4,5,1,8,1,5,4,8,4,7,3,6,3,5,
2b,6,2,6,2,7,2,7,4,6,2,6,1,8,3,8,
1b,7,3,8,1,6,1,6,1,8,1,8,2,7,3,5,
4b,5,2,5,1,7,1,8,3,6,4,5,4,7,3,7,
4b,6,3,8,1,8,1,8,1,7,4,8,3,6,2,6,
4b,8,1,6,4,5,1,7,1,8,2,6,4,6,2,6,
1b,7,2,5,1,5,2,8,1,8,2,6,3,6,3,8,
1b,7,1,6,1,8,3,5,2,6,2,7,2,8,4,8,
4b,6,3,8,1,8,3,5,4,5,2,5,4,5,1,7,
2b,7,3,7,1,5,1,7,1,8,1,5,4,5,3,8,
3b,6,1,6,3,7,2,6,1,6,3,5,2,8,4,7,
3b,8,3,6,4,7,4,8,1,8,4,7,3,7,3,5,
3b,6,3,5,1,5,4,8,3,6,4,7,3,8,4,6,
4b,8,3,6,2,6,3,6,1,6,4,7,4,8,2,5,
2b,8,3,6,2,8,3,5,4,7,2,7,1,8,2,6,
1b,5,4,6,2,8,1,8,1,8,3,5,2,7,4,8,
3b,5,1,8,2,8,3,6,3,7,4,5,4,8,2,8,
4b,8,3,8,1,5,3,8,1,8,3,6,4,6,3,7,
1b,6,1,8,3,6,1,6,3,7,2,7,1,5,1,6,
3b,5,1,6,2,5,2,6,2,6,3,7,4,6,4,5,
3b,5,1,7,3,7,4,5,3,8,3,7,1,5,2,8,
2b,6,3,8,1,7,4,5,3,6,1,6,1,8,2,5,
1b,5,3,7,3,8,4,5,4,8,4,8,3,8,2,6,
4b,5,2,8,3,6,2,8,1,8,2,6,2,6,4,5,
2b,5,3,7,1,7,4,6,3,8,2,7,4,6,1,5,
1b,8,3,7,3,8,1,5,2,7,3,6,1,8,2,7,
3b,7,4,8,4,8,3,6,4,7,2,6,1,8,1,6,
4b,8,4,6,2,6,3,6,2,6,2,7,4,7,3,5,
4b,5,3,8,3,5,2,7,4,8,4,6,4,5,3,5,
1b,7,4,8,4,6,3,8,4,6,3,6,3,7,4,8,
3b,8,4,6,1,7,2,7,4,6,2,7,4,6,2,8,
2b,5,4,5,4,6,4,6,2,7,4,5,3,5,2,7,
1b,7,4,5,3,6,2,5,3,6,4,8,1,7,4,8,
1b,7,3,6,1,8,3,8,2,6,1,7,1,5,4,7,
3b,8,2,7,4,8,1,7,4,5,1,7,3,8,2,8,
1b,5,2,5,2,7,3,6,4,7,1,6,4,7,2,6,
4b,6,3,5,4,5,1,6,2,5,2,6,4,8,3,6,
3b,8,2,7,3,8,1,7,2,5,3,7,3,6,4,6,
2b,5,3,6,3,6,1,5,4,8,3,7,2,5,2,5,
1b,8,1,6,4,7,4,7,2,6,4,6,3,6,2,7,
4b,6,3,8,2,6,4,6,3,7,4,5,3,8,1,7,
3b,7,4,6,1,6,2,7,4,6,2,8,3,7,1,6,
1b,6,2,8,4,8,1,7,2,7,1,7,4,5,1,8,
2b,5,4,8,3,6,1,8,2,6,3,5,2,5,3,5,
3b,6,3,8,2,8,2,7,1,8,4,5,3,8,3,5,
4b,7,1,7,4,6,3,8,1,5,3,6,3,7,2,8,
4b,8,4,7,3,8,3,6,3,8,1,8,4,8,4,7,
1b,8,1,5,3,7,3,5,4,8,2,8,3,5,2,6,
3b,6,1,6,1,5,2,5,3,5,3,6,1,7,3,6,
1b,6,4,7,2,5,4,8,3,6,4,6,3,7,3,7,
4b,8,3,5,4,5,3,5,1,6,3,5,1,5,4,8,
1b,6,3,7,2,6,3,6,1,8,4,6,1,5,2,5,
4b,6,3,5,1,8,2,8,1,5,1,5,3,5,4,6,
2b,5,1,8,1,7,3,7,2,8,3,8,2,8,2,5,
3b,5,3,6,4,7,2,7,3,8,1,7,1,5,4,6,
1b,7,3,5,3,8,4,5,3,5,2,7,2,7,3,5,
2b,5,2,5,4,8,3,6,4,8,4,7,2,7,4,7,
1b,5,1,8,2,7,3,6,3,6,3,7,2,5,1,7,
3b,5,4,7,2,5,3,8,4,7,4,8,4,6,3,6,
1b,5,2,8,3,5,2,7,4,8,1,5,4,7,2,6,
4b,7,3,8,1,8,1,7,4,8,3,8,2,5,1,6,
4b,8,2,6,1,5,1,6,3,5,3,7,4,7,1,8,
3b,7,2,5,1,8,2,5,4,5,4,6,3,7,4,8,
3b,5,1,6,1,6,1,7,3,8,1,5,3,7,4,7,
3b,7,2,5,4,8,3,8,1,6,1,7,4,5,1,7,
1b,5,1,8,4,7,3,8,4,7,2,8,4,5,2,8,
4b,8,2,5,3,6,3,7,2,7,2,7,3,7,2,7,
2b,5,4,6,1,7,2,8,3,8,1,8,4,6,3,7,
3b,5,3,6,1,6,3,5,3,5,4,7,1,5,3,8,
2b,6,3,7,1,8,3,7,2,6,4,5,1,6,2,7,
4b,5,3,5,1,8,4,7,4,8,3,8,3,5,3,7,
1b,7,4,7,3,7,4,8,1,6,2,7,2,7,2,8,
1b,6,1,6,3,6,3,7,1,7,3,5,1,7,1,8,
3b,8,3,6,1,5,3,7,4,7,4,6,2,7,2,8,
4b,8,4,6,1,6,4,6,3,5,3,7,1,5,4,8,
3b,7,3,5,2,8,4,8,4,7,4,7,3,8,4,5,
2b,7,2,6,1,7,4,8,4,7,3,6,3,8,1,6,
2b,8,3,5,3,5,3,8,2,7,2,8,4,6,1,7,
4b,5,2,6,1,6,3,7,2,6,3,5,1,8,1,5,
3b,8,4,5,4,5,1,5,1,7,3,8,4,5,4,7,
4b,8,1,5,1,6,2,6,2,7,1,6,4,6,1,5,
2b,6,1,5,3,7,4,8,4,8,1,5,2,8,1,7,
4b,7,4,6,2,5,3,7,4,5,1,8,3,5,3,5,
2b,7,4,8,4,7,4,5,3,8,4,7,2,8,1,6,
3b,5,2,5,1,6,4,5,4,6,3,7,4,6,4,6,
2b,7,3,5,2,7,1,6,3,8,1,8,2,7,2,8,
1b,6,2,8,4,5,2,7,3,5,4,5,2,8,4,7,
2b,7,4,5,2,7,3,6,2,7,4,7,2,5,1,6,
3b,6,1,6,3,5,1,6,4,8,2,5,3,5,4,7,
3b,8,3,7,1,6,4,8,3,7,2,7,4,7,2,7,
3b,7,2,7,3,8,3,8,2,7,2,7,2,5,3,5,
4b,5,4,6,2,7,3,6,4,6,2,5,3,7,4,7,
3b,7,1,5,1,8,1,7,4,8,2,8,3,5,2,7,
2b,8,2,7,4,5,1,5,1,8,3,8,4,5,4,8,
3b,6,3,6,4,7,1,8,3,5,4,7,4,8,1,8,
3b,5,4,5,1,8,4,6,3,6,4,5,4,7,1,8,
3b,8,4,6,1,7,1,5,3,8,2,6,1,8,3,7,
4b,8,1,8,2,7,4,6,1,6,1,7,4,7,1,8,
1b,7,3,7,4,5,4,6,1,8,4,6,3,6,4,8,
3b,6,4,6,1,5,1,7,4,6,3,8,2,6,1,7,
4b,7,1,5,4,6,1,7,1,8,1,5,2,5,3,8,
3b,5,4,7,3,5,1,7,4,6,3,7,3,7,2,5,
2b,7,2,7,1,8,3,6,1,8,3,8,4,8,4,8,
1b,8,2,7,1,5,3,8,1,6,2,6,3,8,3,6,
2b,7,3,7,4,6,3,7,3,8,2,5,1,8,4,5,
2b,5,3,6,3,8,2,8,4,7,2,7,4,6,4,5,
4b,6,2,8,1,7,4,5,2,8,2,7,4,7,2,6,
1b,7,2,5,3,5,4,7,1,5,2,8,4,8,4,7,
2b,7,3,6,1,7,2,8,1,8,1,5,4,5,3,6,
4b,5,3,6,4,8,2,5,1,6,1,5,2,5,1,8,
1b,8,4,8,4,8,4,6,3,6,3,5,1,7,1,8,
3b,8,2,5,4,5,3,7,1,8,4,5,3,8,3,7,
1b,7,1,7,3,6,3,6,2,7,1,6,1,7,1,5,
1b,7,2,6,1,8,4,7,2,7,1,5,1,7,2,7,
4b,8,2,5,4,7,1,5,4,7,2,6,4,8,2,7,
4b,8,3,7,1,5,2,5,4,5,1,5,3,8,4,8,
4b,7,1,6,1,6,2,5,2,5,4,8,3,6,1,6,
4b,6,1,6,3,8,3,5,4,8,4,8,4,8,3,6,
1b,7,3,6,4,7,2,7,3,7,4,7,4,6,1,7,
4b,8,1,5,4,8,3,6,4,6,1,8,4,7,4,8,
3b,6,4,8,4,8,3,6,4,5,2,6,1,5,2,7,
4b,7,1,7,1,5,1,8,4,5,3,6,2,8,2,6,
1b,8,1,8,2,7,3,6,3,6,1,7,1,6,3,7,
3b,5,1,5,1,7,4,7,4,8,4,6,4,8,2,5,
4b,5,4,7,4,6,4,8,3,6,4,8,1,5,3,6,
1b,6,4,8,1,7,4,6,4,8,2,6,1,5,1,6,
3b,5,2,6,2,5,1,6,4,5,2,5,1,8,2,5,
4b,7,3,7,1,5,3,8,2,6,2,8,2,5,1,6,
3b,7,2,6,1,6,2,6,4,5,3,8,4,8,3,7,
3b,6,4,6,3,5,4,6,3,5,1,5,4,8,4,6,
3b,8,2,7,4,6,1,7,4,8,3,5,2,6,4,8,
2b,8,1,8,3,7,1,7,3,8,4,7,3,6,4,8,
2b,5,4,5,3,5,4,5,1,5,4,5,2,8,3,5,
4b,8,4,6,4,5,1,6,2,8,4,6,3,7,2,5,
2b,5,4,5,4,8,4,7,4,6,2,5,2,8,4,6,
2b,8,1,6,4,5,1,5,4,7,4,7,1,6,3,5,
3b,6,4,7,1,7,1,7,4,8,1,8,4,6,2,7,
1b,5,2,8,4,7,1,8,3,5,1,7,1,5,4,5,
3b,6,4,5,1,7,4,7,2,8,3,7,2,6,1,8,
1b,5,3,5,1,8,1,8,3,5,2,6,4,5,2,8,
3b,5,3,7,3,6,2,5,2,6,4,5,4,5,3,5,
2b,8,3,7,1,8,4,8,2,6,4,6,3,8,4,8,
1b,8,2,8,1,8,4,6,3,5,3,5,2,7,3,7,
2b,7,4,8,1,8,2,5,3,6,3,6,2,5,1,7,
2b,7,3,5,4,6,1,8,3,8,1,5,2,8,4,7,
2b,8,1,5,3,6,3,8,2,5,4,7,2,8,4,6,
1b,8,1,6,3,5,1,7,2,6,1,8,1,6,3,5,
2b,7,1,6,4,8,1,7,2,5,3,5,3,6,3,8,
1b,5,4,6,3,8,3,5,2,8,3,7,1,7,4,7,
1b,8,2,8,3,7,2,8,3,5,3,7,4,8,1,5,
1b,7,3,6,1,7,1,5,2,5,3,5,3,7,1,6,
2b,7,3,7,4,6,4,5,3,7,4,6,2,7,1,7,
2b,7,1,6,3,8,3,7,1,8,1,5,4,6,1,6,
1b,8,4,7,1,8,3,5,1,7,1,5,1,8,3,5,
3b,7,4,6,1,8,2,7,4,6,4,8,3,6,2,6,
1b,6,3,5,2,7,1,6,4,7,1,5,2,7,3,8,
3b,5,4,6,1,5,2,6,4,5,1,8,4,5,4,8,
1b,7,2,7,3,7,1,7,3,5,1,7,2,6,2,5,
3b,6,1,5,2,5,2,7,3,8,3,7,2,7,3,8,
4b,7,4,5,1,8,3,8,4,7,3,6,3,7,2,5,
1b,,,,,,,,,,,,,,,,
E
&inote_5=(200)
{8}1b/8b,2b/7b,
{2}3b/6b,2b/6b,
{1}4b/8b,
{8},,,,2,6,3,7,
{16}
1b,8,1,8,1,8,1,8,1,8,1,8,1,8,1,8,
2b,7,2,7,2,7,2,7,2,7,2,7,2,7,2,7,
3b,6,3,6,3,6,3,6,3,6,3,6,3,6,3,6,
4b,5,4,5,4,5,4,5,4,5,4,5,4,5,4,5,
3b,6,3,6,3,6,3,6,3,6,3,6,3,6,3,6,
2b,7,2,7,2,7,2,7,2,7,2,7,2,7,2,7,
1b,8,1,8,1,8,1,8,1,8,1,8,1,8,1,8,
2b,7,2,7,2,7,2,7,2,7,2,7,2,7,2,7,
3b,6,3,6,3,6,3,6,3,6,3,6,3,6,3,6,
4b,5,4,5,4,5,4,5,4,5,4,5,4,5,4,5,
3b,6,3,6,3,6,3,6,3,6,3,6,3,6,3,6,
2b,7,2,7,2,7,2,7,2,7,2,7,2,7,2,7,
1b,8,1,8,1,8,1,8,1,8,1,8,1,8,1,8,
2b,7,2,7,2,7,2,7,2,7,2,7,2,7,2,7,
3b,6,3,6,3,6,3,6,3,6,3,6,3,6,3,6,
4b,5,4,5,4,5,4,5,4,5,4,5,4,5,4,5,
1b,8,1,8,1,8,1,8,2,7,2,7,2,7,2,7,
3b,6,3,6,3,6,3,6,4,5,4,5,4,5,4,5,
3b,6,3,6,3,6,3,6,2,7,2,7,2,7,2,7,
1b,8,1,8,1,8,1,8,2,7,2,7,2,7,2,7,
3b,6,3,6,3,6,3,6,4,5,4,5,4,5,4,5,
3b,6,3,6,3,6,3,6,2,7,2,7,2,7,2,7,
1b,8,1,8,1,8,1,8,2,7,2,7,2,7,2,7,
3b,6,3,6,3,6,3,6,4,5,4,5,4,5,4,5,
3b,6,3,6,3,6,3,6,2,7,2,7,2,7,2,7,
1b,8,1,8,1,8,1,8,2,7,2,7,2,7,2,7,
3b,6,3,6,3,6,3,6,4,5,4,5,4,5,4,5,
3b,6,3,6,3,6,3,6,2,7,2,7,2,7,2,7,
1b,8,1,8,1,8,1,8,2,7,2,7,2,7,2,7,
3b,6,3,6,3,6,3,6,4,5,4,5,4,5,4,5,
3b,6,3,6,3,6,3,6,2,7,2,7,2,7,2,7,
1b,8,1,8,1,8,1,8,2,7,2,7,2,7,2,7,
1b,8,1,8,2,7,2,7,3,6,3,6,4,5,4,5,
3b,6,3,6,2,7,2,7,1,8,1,8,2,7,2,7,
3b,6,3,6,4,5,4,5,3,6,3,6,2,7,2,7,
1b,8,1,8,2,7,2,7,3,6,3,6,4,5,4,5,
3b,6,3,6,2,7,2,7,1,8,1,8,2,7,2,7,
3b,6,3,6,4,5,4,5,3,6,3,6,2,7,2,7,
1b,8,1,8,2,7,2,7,3,6,3,6,4,5,4,5,
3b,6,3,6,2,7,2,7,1,8,1,8,2,7,2,7,
3b,6,3,6,4,5,4,5,3,6,3,6,2,7,2,7,
1b,8,1,8,2,7,2,7,3,6,3,6,4,5,4,5,
3b,6,3,6,2,7,2,7,1,8,1,8,2,7,2,7,
3b,6,3,6,4,5,4,5,3,6,3,6,2,7,2,7,
1b,8,1,8,2,7,2,7,3,6,3,6,4,5,4,5,
3b,6,3,6,2,7,2,7,1,8,1,8,2,7,2,7,
3b,6,3,6,4,5,4,5,3,6,3,6,2,7,2,7,
1b,8,1,8,2,7,2,7,3,6,3,6,4,5,4,5,
3b,4,3,4,2,5,2,5,1,6,1,6,8,7,8,7,
5b,6,5,6,4,7,4,7,3,8,3,8,2,1,2,1,
3b,4,3,4,2,5,2,5,1,6,1,6,8,7,8,7,
5b,6,5,6,4,7,4,7,3,8,3,8,2,1,2,1,
8b,7,8,7,1,6,1,6,2,5,2,5,3,4,3,4,
2b,1,2,1,3,8,3,8,4,7,4,7,5,6,5,6,
8b,7,8,7,1,6,1,6,2,5,2,5,3,4,3,4,
2b,1,2,1,3,8,3,8,4,7,4,7,5,6,5,6,
3b,4,3,4,2,5,2,5,1,6,1,6,8,7,8,7,
2b,1,2,1,3,8,3,8,4,7,4,7,5,6,5,6,
8b,7,8,7,1,6,1,6,2,5,2,5,3,4,3,4,
5b,6,5,6,4,7,4,7,3,8,3,8,2,1,2,1,
8b,7,8,7,1,6,1,6,2,5,2,5,3,4,3,4,
2b,1,2,1,3,8,3,8,4,7,4,7,5,6,5,6,
3b,4,3,4,2,5,2,5,1,6,1,6,8,7,8,7,
5b,6,5,6,4,7,4,7,3,8,3,8,2,1,2,1,
4b,5,3,6,2,7,1,8,4,5,3,6,2,7,1,8,
4b,5,3,6,2,7,1,8,4,5,3,6,2,7,1,8,
4b,5,3,6,2,7,1,8,4,5,3,6,2,7,1,8,
4b,5,3,6,2,7,1,8,4,5,3,6,2,7,1,8,
1b,8,2,7,3,6,4,5,1,8,2,7,3,6,4,5,
1b,8,2,7,3,6,4,5,1,8,2,7,3,6,4,5,
1b,8,2,7,3,6,4,5,1,8,2,7,3,6,4,5,
1b,8,2,7,3,6,4,5,1,8,2,7,3,6,4,5,
1b,8,2,7,3,6,4,5,3,6,2,7,1,8,2,7,
3b,6,4,5,3,6,2,7,1,8,2,7,3,6,4,5,
3b,6,2,7,1,8,2,7,3,6,4,5,3,6,2,7,
1b,8,2,7,3,6,4,5,3,6,2,7,1,8,2,7,
3b,6,4,5,3,6,2,7,1,8,2,7,3,6,4,5,
3b,6,2,7,1,8,2,7,3,6,4,5,3,6,2,7,
1b,8,2,7,3,6,4,5,3,6,2,7,1,8,2,7,
3b,6,4,5,3,6,2,7,1,8,2,7,3,6,4,5,
1b,8,2,7,1,8,2,7,1,8,2,7,1,8,2,7,
2b,8,1,7,2,8,1,7,2,8,1,7,2,8,1,7,
2b,7,1,8,2,7,1,8,2,7,1,8,2,7,1,8,
1b,7,2,8,1,7,2,8,1,7,2,8,1,7,2,8,
4b,5,3,6,4,5,3,6,4,5,3,6,4,5,3,6,
3b,5,4,6,3,5,4,6,3,5,4,6,3,5,4,6,
3b,6,4,5,3,6,4,5,3,6,4,5,3,6,4,5,
4b,6,3,5,4,6,3,5,4,6,3,5,4,6,3,5,
2b,1,3,8,2,1,3,8,3,1,2,8,3,1,2,8,
3b,8,2,1,3,8,2,1,2,8,3,1,2,8,3,1,
5b,6,4,7,5,6,4,7,4,6,5,7,4,6,5,7,
4b,7,5,6,4,7,5,6,5,7,4,6,5,7,4,6,
8b,7,1,6,8,7,1,6,1,7,8,6,1,7,8,6,
1b,6,8,7,1,6,8,7,8,6,7,1,8,6,7,1,
3b,4,2,5,3,4,2,5,2,4,3,5,2,4,3,5,
2b,5,3,4,2,5,3,4,3,5,2,4,3,5,2,4,
2b,7,3,6,2,7,3,6,2,7,3,6,2,7,3,6,
3b,7,2,6,3,7,2,6,3,7,2,6,3,7,2,6,
3b,6,2,7,3,6,2,7,3,6,2,7,3,6,2,7,
2b,6,3,7,2,6,3,7,2,6,3,7,2,6,3,7,
1b,8,3,6,1,8,3,6,1,8,3,6,1,8,3,6,
3b,8,1,6,3,8,1,6,3,8,1,6,3,8,1,6,
3b,6,1,8,3,6,1,8,3,6,1,8,3,6,1,8,
1b,6,3,8,1,6,3,8,1,6,3,8,1,6,3,8,
4b,5,2,7,4,5,2,7,4,5,2,7,4,5,2,7,
2b,5,4,7,2,5,4,7,2,5,4,7,2,5,4,7,
2b,7,4,5,2,7,4,5,2,7,4,5,2,7,4,5,
4b,7,2,5,4,7,2,5,4,7,2,5,4,7,2,5,
1b,8,3,6,2,7,4,5,1,8,3,6,2,7,4,5,
4b,5,2,7,3,6,1,8,4,5,2,7,3,6,1,8,
1b,8,4,5,1,8,4,5,1,8,4,5,1,8,4,5,
1b,5,4,8,1,5,4,8,1,5,4,8,1,5,4,8,
1b,8,1,7,1,6,1,5,1,4,1,5,1,6,1,7,
2b,8,2,7,2,6,2,5,2,4,2,5,2,6,2,7,
3b,5,3,6,3,7,3,8,3,1,3,8,3,7,3,6,
4b,5,4,6,4,7,4,8,4,1,4,8,4,7,4,6,
1b,8,2,8,3,8,4,8,5,8,4,8,3,8,2,8,
1b,7,2,7,3,7,4,7,5,7,4,7,3,7,2,7,
4b,6,3,6,2,6,1,6,8,6,1,6,2,6,3,6,
4b,5,3,5,2,5,1,5,8,5,1,5,2,5,3,5,
3b,8,3,6,3,1,3,7,3,8,3,6,3,1,3,7,
1b,6,3,6,8,6,2,6,1,6,3,6,8,6,2,6,
3b,4,3,2,3,4,3,2,3,4,3,2,3,4,3,2,
5b,6,7,6,5,6,7,6,5,6,7,6,5,6,7,6,
4b,5,4,8,4,5,4,6,4,5,4,1,4,5,4,7,
4b,5,1,5,4,5,3,5,4,5,8,5,4,5,2,5,
3b,4,3,5,3,6,3,7,3,8,3,1,3,2,3,4,
5b,6,4,6,3,6,2,6,1,6,8,6,7,6,5,6,
1b,5,2,6,3,7,4,8,3,7,2,6,1,5,2,6,
3b,7,4,8,3,7,2,6,1,5,2,6,3,7,4,8,
3b,7,2,6,1,5,2,6,3,7,4,8,3,7,2,6,
1b,5,2,6,3,7,4,8,3,7,2,6,1,5,2,6,
3b,7,4,8,3,7,2,6,1,5,2,6,3,7,4,8,
3b,7,2,6,1,5,2,6,3,7,4,8,3,7,2,6,
1b,5,2,6,3,7,4,8,3,7,2,6,1,5,2,6,
3b,7,4,8,3,7,2,6,1,5,2,6,3,7,4,8,
1b,5,2,6,3,7,4,8,5,1,4,8,3,7,2,6,
1b,5,2,6,3,7,4,8,5,1,4,8,3,7,2,6,
1b,5,2,6,3,7,4,8,5,1,4,8,3,7,2,6,
1b,5,2,6,3,7,4,8,5,1,4,8,3,7,2,6,
4b,8,3,7,2,6,1,5,8,4,1,5,2,6,3,7,
4b,8,3,7,2,6,1,5,8,4,1,5,2,6,3,7,
4b,8,3,7,2,6,1,5,8,4,1,5,2,6,3,7,
4b,8,3,7,2,6,1,5,8,4,1,5,2,6,3,7,
1b,5,2,6,3,7,4,8,5,1,4,8,3,7,2,6,
1b,5,8,4,1,5,2,6,3,7,4,8,5,1,4,8,
3b,7,2,6,1,5,8,4,1,5,2,6,3,7,4,8,
5b,1,4,8,3,7,2,6,1,5,8,4,1,5,2,6,
3b,7,4,8,5,1,4,8,3,7,2,6,1,5,8,4,
1b,5,2,6,3,7,4,8,5,1,4,8,3,7,2,6,
1b,5,8,4,1,5,2,6,3,7,4,8,5,1,4,8,
3b,7,2,6,1,5,8,4,1,5,2,6,3,7,4,8,
5b,1,6,2,5,1,4,8,3,7,2,6,1,5,8,4,
7b,3,8,4,1,5,2,6,3,7,4,8,5,1,6,2,
5b,1,4,8,3,7,2,6,1,5,8,4,7,3,8,4,
1b,5,2,6,3,7,4,8,5,1,6,2,5,1,4,8,
3b,7,2,6,1,5,8,4,7,3,8,4,1,5,2,6,
3b,7,4,8,5,1,6,2,5,1,4,8,3,7,2,6,
1b,5,8,4,7,3,8,4,1,5,2,6,3,7,4,8,
5b,1,6,2,5,1,4,8,3,7,2,6,1,5,8,4,
2b,8,2,7,1,8,1,5,3,7,4,6,3,8,2,7,
4b,5,3,6,1,7,1,7,2,6,4,7,4,5,3,7,
1b,6,4,5,3,7,3,7,3,5,4,7,1,5,2,8,
2b,7,1,8,4,6,1,8,4,6,2,8,1,5,4,6,
1b,,,,,,,,,,,,,,,,
E
&inote_6=(200)
{8}1b/8b,2b/7b,
{2}3b/6b,2b/6b,
{1}4b/8b,
{8},,,,2,6,3,7,
{8}
4b/7b,4/6,2/5,2/5,1/6,1/7,2/7,1/7,
3b/8b,2/5,4/6,3/5,1/7,2/8,4/7,1/6,
2b/8b,3/8,3/7,1/5,1/7,1/5,1/8,2/5,
4b/8b,1/5,3/6,1/7,1/5,1/5,2/6,2/7,
2b/7b,1/6,3/6,2/7,2/6,2/7,3/7,4/5,
2b/6b,3/8,4/7,3/8,3/8,4/7,4/5,3/6,
3b/8b,2/7,3/8,2/7,1/6,3/6,1/7,1/6,
2b/5b,2/7,4/5,4/8,3/6,4/5,3/6,2/5,
2b/6b,3/8,4/7,4/8,4/7,4/8,1/5,4/8,
1b/8b,2/6,1/5,2/5,3/5,3/5,4/5,2/5,
2b/8b,3/8,4/6,3/7,4/8,4/7,2/6,3/7,
3b/6b,2/5,1/8,1/7,2/7,3/7,4/6,3/5,
3b/5b,2/8,3/6,4/5,3/5,3/6,1/6,4/5,
4b/6b,1/8,1/6,4/7,3/5,1/7,3/7,1/5,
2b/8b,2/5,4/8,4/5,4/5,4/8,4/6,1/6,
4b/7b,2/8,2/6,3/8,2/7,1/5,1/7,2/6,
3b/5b,4/6,2/7,1/5,4/6,2/5,3/6,1/6,
1b/8b,1/6,2/7,3/6,1/6,1/8,3/5,3/7,
3b/7b,2/5,4/8,4/6,1/5,2/6,2/7,4/6,
2b/6b,4/6,4/5,4/7,2/5,1/7,3/8,2/6,
4b/8b,2/5,1/6,4/6,4/6,4/7,4/6,3/5,
3b/6b,3/6,1/5,3/5,2/7,2/8,3/7,1/7,
4b/5b,4/7,3/7,4/6,2/5,4/8,3/5,1/8,
2b/7b,1/8,3/5,3/8,2/5,1/5,2/6,1/8,
3b/8b,1/7,2/6,4/7,3/5,3/5,2/7,3/8,
4b/8b,4/6,4/8,3/8,1/5,2/5,1/8,4/7,
3b/7b,3/5,2/6,2/5,2/7,2/7,3/7,3/5,
2b/6b,1/8,4/8,1/7,1/8,3/5,4/5,1/6,
1b/7b,1/8,2/7,1/6,4/7,2/8,4/6,4/8,
4b/5b,2/8,2/5,1/7,2/8,4/8,1/7,4/6,
2b/8b,1/7,3/6,4/8,4/7,4/6,1/5,3/5,
1b/8b,1/7,2/6,3/6,1/6,3/8,4/6,2/5,
3b/7b,3/7,4/5,3/7,1/8,1/5,1/6,4/7,
4b/8b,1/6,2/6,4/6,1/7,1/5,2/8,4/6,
1b/6b,3/6,1/5,3/7,2/8,1/7,4/8,3/6,
1b/5b,1/5,4/5,1/6,1/8,3/6,1/5,4/5,
2b/7b,3/8,3/7,1/6,3/5,3/5,2/7,2/5,
3b/5b,4/7,3/5,1/8,2/8,4/8,1/8,1/8,
3b/6b,1/6,4/8,4/7,1/8,4/8,4/6,3/8,
3b/8b,4/6,2/7,4/6,4/6,1/6,3/8,3/7,
1b/6b,4/7,3/8,2/8,1/5,3/5,4/6,1/5,
1b/6b,1/7,2/7,2/5,1/8,4/8,4/7,1/6,
4b/8b,4/7,4/5,1/6,2/7,1/8,4/6,3/6,
1b/5b,3/6,3/6,3/5,3/5,3/6,2/5,3/5,
3b/7b,2/5,3/8,3/5,1/8,2/5,1/6,2/5,
2b/8b,3/6,4/7,1/7,2/6,1/7,4/5,3/8,
3b/5b,1/8,2/8,1/8,1/6,2/5,2/8,1/7,
4b/6b,2/7,4/8,3/6,3/6,4/7,4/6,3/7,
4b/7b,3/7,2/6,1/8,1/7,4/7,1/5,3/5,
4b/8b,4/7,3/5,3/8,1/5,1/5,2/8,1/6,
3b/7b,4/8,4/8,3/8,3/8,2/8,1/8,3/6,
1b/7b,1/6,4/6,1/8,1/7,1/8,1/8,4/7,
2b/5b,2/8,2/6,1/6,1/8,2/5,2/5,1/6,
3b/7b,3/8,1/5,3/8,1/7,1/5,4/5,4/8,
3b/8b,4/5,1/7,3/7,1/8,4/5,1/7,1/7,
4b/5b,4/8,1/8,2/7,2/8,3/5,4/8,3/8,
2b/8b,3/5,4/6,1/6,1/5,4/8,1/7,3/8,
1b/7b,4/6,1/8,1/8,3/7,2/6,2/7,3/6,
1b/6b,4/7,4/5,2/5,4/5,3/7,1/8,3/5,
4b/5b,3/8,1/5,4/7,2/5,1/6,2/5,1/6,
4b/6b,4/5,4/5,4/5,2/6,1/8,4/6,3/7,
1b/8b,2/8,3/5,3/8,3/6,2/5,2/7,2/8,
2b/8b,3/7,1/5,2/8,4/8,2/5,1/6,1/6,
4b/7b,4/7,1/8,2/5,2/7,2/8,2/7,4/6,
2b/8b,1/6,1/5,4/5,4/8,1/5,3/8,2/8,
4b/7b,3/6,2/5,1/5,2/5,3/8,1/6,4/7,
4b/6b,1/6,1/8,2/5,3/7,2/7,3/6,1/6,
1b/6b,3/7,4/5,3/6,2/8,2/6,1/5,4/7,
2b/7b,1/6,1/8,2/8,1/6,4/7,4/8,3/8,
2b/6b,1/8,2/8,1/6,2/7,1/6,4/8,3/5,
1b/7b,1/5,2/7,3/7,2/5,3/8,1/8,3/7,
1b/6b,4/8,3/6,3/8,1/7,4/5,4/6,1/7,
3b/5b,1/7,2/8,2/8,2/5,4/5,4/8,1/7,
1b/7b,4/6,4/6,1/6,4/7,3/6,2/6,3/8,
1b/6b,1/7,4/8,2/5,3/6,3/5,1/6,4/8,
3b/8b,2/7,3/8,3/6,3/7,3/5,4/7,4/7,
4b/7b,2/5,1/8,3/7,1/5,4/5,3/5,3/8,
4b/5b,3/6,2/5,4/8,1/5,2/8,1/5,2/5,
1b/6b,4/5,4/6,2/5,3/5,4/5,1/7,3/7,
1b/6b,3/6,4/6,4/7,1/8,3/6,1/6,2/6,
2b/8b,3/7,3/7,4/7,4/7,3/6,2/8,1/8,
1b/5b,3/7,1/7,1/8,3/8,2/5,4/8,1/6,
2b/8b,3/6,1/5,2/8,4/8,4/6,2/8,1/6,
3b/8b,2/6,4/6,1/6,4/5,1/7,4/7,2/5,
1b/8b,1/7,4/8,4/7,2/5,1/5,3/6,4/6,
4b/6b,4/7,4/5,4/5,2/7,1/7,3/6,4/8,
1b/6b,3/7,4/5,1/8,4/8,4/8,4/5,2/7,
2b/8b,1/6,2/5,2/8,3/5,2/5,1/7,4/6,
3b/8b,1/6,2/8,1/8,3/8,2/8,1/8,1/8,
3b/7b,4/6,4/7,2/7,4/8,4/8,2/6,4/8,
1b/5b,1/6,4/8,4/8,4/7,4/7,1/7,1/5,
1b/7b,1/8,1/7,4/6,1/7,2/8,4/8,4/5,
4b/5b,2/6,2/7,3/5,2/5,3/6,4/5,3/5,
4b/8b,2/6,2/5,4/8,4/8,2/5,4/8,2/7,
2b/8b,3/7,1/8,2/6,1/7,4/5,3/7,1/8,
4b/8b,3/5,3/7,2/5,2/6,1/6,1/5,4/8,
3b/8b,2/8,3/5,4/6,1/8,2/5,3/6,2/8,
2b/7b,4/6,2/8,4/6,3/5,1/6,1/7,2/7,
2b/8b,2/8,1/6,4/8,1/8,2/6,1/7,2/7,
4b/6b,3/6,3/5,1/6,2/8,3/8,4/8,4/6,
1b/5b,3/6,4/6,2/7,2/7,2/5,1/5,2/5,
4b/8b,3/7,1/8,4/8,3/6,4/8,4/8,4/6,
3b/5b,2/5,4/7,3/8,3/6,2/7,3/6,1/5,
2b/5b,2/7,1/8,3/8,2/5,1/5,1/8,1/8,
2b/7b,1/6,1/5,3/8,4/6,1/6,3/8,3/5,
4b/8b,2/8,4/6,2/5,4/7,1/6,2/6,4/8,
4b/6b,3/8,3/6,3/5,2/8,4/5,3/5,1/5,
4b/8b,4/6,1/6,2/5,2/6,4/5,3/6,1/6,
4b/6b,3/8,4/8,4/8,2/5,1/6,1/7,3/7,
2b/7b,4/8,1/6,4/7,4/6,3/7,2/6,2/6,
2b/6b,3/6,1/6,3/6,1/8,2/8,2/7,2/7,
1b/7b,4/6,3/5,4/8,4/6,2/5,3/6,2/6,
2b/6b,2/7,2/8,1/5,2/8,3/8,4/8,3/5,
4b/8b,4/6,1/7,1/5,3/5,1/5,2/6,1/5,
3b/8b,1/6,3/6,3/6,1/7,1/5,1/8,1/5,
3b/5b,2/8,4/6,2/7,3/7,2/8,2/6,2/8,
3b/5b,4/6,4/6,1/6,2/8,3/8,2/7,1/7,
3b/5b,4/8,4/8,3/8,4/6,3/5,4/5,4/6,
3b/7b,2/8,2/5,3/6,3/7,4/8,4/7,1/7,
1b/7b,4/8,1/5,4/5,4/8,3/6,4/8,3/7,
3b/8b,1/8,2/6,1/7,2/5,3/5,4/7,1/5,
3b/5b,2/7,1/7,1/5,2/5,1/7,2/5,1/7,
4b/7b,2/8,3/7,3/5,1/5,1/6,1/6,1/5,
4b/8b,3/6,2/6,3/5,3/6,2/7,2/5,4/8,
4b/7b,1/6,1/7,4/5,2/5,4/5,2/5,3/5,
1b/6b,4/5,1/8,3/8,3/7,4/7,4/6,2/6,
2b/5b,1/6,3/8,1/8,2/5,4/5,4/5,2/5,
2b/5b,3/6,4/6,4/5,4/6,2/7,3/6,2/5,
3b/8b,4/7,2/8,4/8,1/7,1/5,4/7,4/8,
4b/7b,2/6,2/6,3/6,4/6,2/7,4/6,4/7,
2b/7b,4/8,2/8,1/6,1/6,3/7,4/5,4/5,
1b/7b,2/8,1/7,4/7,4/7,4/7,3/6,3/5,
3b/8b,1/6,3/8,4/8,2/8,2/6,2/7,1/8,
3b/5b,1/5,3/5,4/5,2/5,4/8,3/5,3/5,
4b/8b,2/7,4/7,1/5,2/7,2/8,2/8,1/6,
1b/7b,3/7,2/7,1/7,3/8,1/6,4/6,2/7,
1b/8b,4/6,4/8,1/6,3/6,3/5,4/8,2/6,
4b/8b,3/6,1/5,2/6,2/8,2/7,2/5,3/5,
1b/8b,1/5,2/6,2/7,3/8,3/6,4/8,1/5,
3b/5b,4/7,2/7,4/5,4/8,3/7,4/6,4/8,
3b/7b,4/7,4/5,4/7,2/8,1/7,1/6,2/5,
4b/5b,4/8,2/7,2/7,3/8,3/5,1/8,3/5,
4b/6b,2/8,2/6,2/8,1/5,3/6,2/6,4/7,
4b/5b,4/6,2/5,4/7,2/7,1/5,3/8,2/7,
1b/8b,3/6,4/6,1/8,1/6,1/5,1/6,4/8,
1b/6b,4/7,4/6,2/6,4/8,3/8,3/5,1/5,
4b/8b,1/5,2/5,2/5,2/5,4/8,3/6,3/8,
3b/7b,3/7,3/7,4/6,3/6,2/6,2/7,3/7,
2b/6b,3/8,3/6,4/8,1/8,2/7,3/8,1/8,
1b/6b,1/6,4/5,1/6,2/8,4/5,4/8,4/7,
3b/6b,3/7,1/5,2/6,2/8,3/7,1/6,4/6,
3b/7b,1/8,3/7,2/8,2/7,2/7,1/7,3/7,
1b/7b,4/6,2/5,3/8,4/8,1/5,2/6,1/8,
4b/6b,3/6,4/8,3/8,2/7,1/8,1/7,1/5,
4b/8b,2/5,1/5,4/7,4/5,3/8,4/5,3/8,
4b/6b,4/8,1/6,4/7,1/7,4/6,1/7,3/7,
2b/7b,3/6,4/7,1/8,2/7,4/8,4/5,1/6,
2b/5b,3/8,2/7,1/5,2/5,1/7,3/8,4/6,
3b/6b,4/5,1/8,4/7,4/6,3/6,4/6,3/8,
4b/7b,2/8,4/7,1/5,3/7,1/5,1/8,3/5,
4b/8b,3/5,1/5,3/7,4/7,2/8,4/6,3/7,
3b/6b,4/7,1/8,4/8,1/6,3/6,4/7,2/6,
1b/5b,4/7,1/7,1/7,2/5,3/5,1/6,1/7,
2b/7b,1/7,1/8,3/8,2/7,2/5,3/5,3/6,
1b/8b,,,,,,,,
E
