&title=MINAZUKI
&artist=DYK
&first=0
&des=
&des=KuSA
&lv_5=12+
&inote_5=(140)
{1},
{8}
,,1b/8b<4[1:1],,1,,1,,1,,1,,1,,1,,1,,7/1-5[8:3],,7,,7,,7,
{16}
4,7,4q5[8:3],,,,,,,,,,8h[4:1],,,,1,,
2/1,,2/1,,3/8,,3/8,,4-1[8:1]/7,,4/7,,6,,,,
7/8,,7/8,,6/1,,6/1,,5-8[8:1]/2,,5/2,,3,,,,
7,5,6,4,5,3,4,2,
{32}7,6,5,4,3,2,1,8,7,6,5,4,3,2,1,8,7b/4h[32:14],,,,,,,,,,,,,,
{16}8-5[8:1]*>5[8:1],,,,,,,,,
3,4,3,,3,4,3,,3-5[8:1],4,3,,,,,,
6,5,6,,6,5,6,,6-1[8:1],5,6,,,,,,
4,5,4,,4,6,4,,4-8[8:1],5,4,,,,,,
7,8,7,,1,8,1pp4[4:1]*qq6[4:1],,,,,,,,,,
5,3,4,3,6,4,5,4,7v4[8:1],5,6,5,,,,,
2,4,3,4,2,5,4,5,3p6[8:1],6,5,6,,,,,
7,5,6,5,7,4,5,4,7-4[8:1]*-3[8:1],5,6,5,,,,,
3b,4b,3b,,2b,1b,2b,,5b,4b,6b,5b,
{32}7,6,5,4,3,2,1,8,7-4[8:1]/3-8[8:1],,,,,,,,
{16}7b/3b,,,,
1h[8:1]/5h[8:1],,,2h[8:1]/6h[8:1],,,7/3,,
4,7,3,6,2,5,3,6,4p8[8:1],7,5,6,,,,,
7,5,6,4,5,3,4,2,5q1[8:1],3,6,4,,,,,
3,3,5,5,4,4,6,6,2-5[8:1]*-6[8:1],2,,,,,,,
3,4,2,2,6,5,7,7,3-6[8:1],4,2,2,,,,,
6,5,7,7,3,4,2,2,6,5,7,7,1h[8:1],,8,,
7/8,,7/8,,1/6,,1/6,,2/5<8[8:1],,2/5,,3,,,,
2,4,3,5,4,6,5,7,
{32}2-6[8:1],3,4,5,6,7,8,1,2,,,,,,,,
{16}
8b/4b,,7h[4:1]/5,,,,3,,6h[8:1]/5h[8:1],,,4h[8:1]/5h[8:1],,,3/4,,
2q4[4:1]/1,,8,,7,,6,,5h[16:3],,,4h[16:3],,,2,,
8h[8:1]/1h[8:1],,,2h[8:1]/1h[8:1],,,3/8,,8h[8:1]/1h[8:1],,,7h[8:1]/8h[8:1],,,5/1,,
2h[8:1],,5,3h[8:1],,6,4h[8:1],,7q3[8:1],5,,,3/7,,,,
1,,2h[4:1]/4,,,,6,,3h[8:1]/4h[8:1],,,5h[8:1]/4h[8:1],,,6/5,,
8/7pp5[4:1],,1,,2,,3,,4h[16:3],,,5h[16:3],,,7,,
8h[8:1]/6h[8:1],,,7h[8:1]/5h[8:1],,,1/8,,
1h[8:1]/3h[8:1],,,2h[8:1]/4h[8:1],,,3/7,,
6b,5b,6b,,7b,8b,7b,,4b,5b,3b,4b,
{32}2,3,4,5,6,7,8,1,2-6[8:1]/6-1[8:1],,,,,,,,
{16}
2b/6b,,,,4h[8:1]/8h[8:1],,,7h[8:1]/3h[8:1],,,2/6,,
1pp4[4:1],,8,,7,,6,,5h[16:3],,,3h[16:3],,,
1,8,7V53[4:1],,2,2,,1,1,,8V24[4:1],,5,5,,6,6,,7V51[4:1],,5,5,,4,4,,3<6[8:1],,,,6/3,,,,
8,,7h[4:1]/5,,,,2,,6h[8:1]/4h[8:1],,,5h[8:1]/3h[8:1],,,4/2,,
1-5[8:1],,5-2[8:1],,6,,7,,8h[16:3],,,1,8h[8:1],,1,,
1/2,,1/2,,3/8,,8/3,,4>1[8:1]/7,,7/4,,6,,,,
7,4,6,3,5,2,4,1,
{32}6,5,4,3,2,1,8,7,6-2[8:1],,,,,,,,
{1}6b/1b>1[1:3]*<1[1:3],,,
{16}
,,,,,,,,,,,,,,6,5,7h[16:3],,,5h[16:3],,,6h[8:5],,,,,,,,,,5-8[2:1],,,,,,,,,,
5,,,,,,6h[16:3],,,5h[16:3],,,7h[2:1],,,,,,,,5,6,7-2[8:1]
,,,,,,,,,,,,,,3,4,2h[16:3],,,4h[16:3],,,3h[8:5],,,,,,,,,,4-1[2:1],,,,,,,,,,
4,,,,,,3h[16:3],,,4h[16:3],,,2h[2:1],,,,,,,,4,3,2-7[8:1],,,,,,,,,,5h[4:1],,,,4,,
4/3h[4:1],,,,1h[4:1],,,,7h[4:1],,,,5h[8:1],,,,4h[4:1]/5,,,,2h[4:1],,,,8h[4:1],,,,6h[8:1],,,,5h[4:1]/6,,,,
7h[4:1],,,,1h[4:1],,,,3h[4:1],,,,5h[4:1],,,,7h[4:1],,,,4v7[8:1]*v1[8:1],,3/5,,,,,,
2/4,,4,,4/5,,5,,5/7,,7-4[8:1],,8,,1/7,,
2,,3/2,,3,,4/3,,4-8[8:1],,3,,4/2,,,,
1,1,6,6,3,3,8,8,2,2,4,4,5,5,7,7,
{32}2,3,4,5,6,7,8,1,2-6[8:1],3,4,5,6,7,8,1,2/6,,,,,,,,
{16}
4b/8b,,,,7-3[8:1],4,6,5,7,,2-6[8:1],4,3,5,2,,8,,8/4,,
2>5[8:1],1,3,8,2,,7<4[8:1],8,6,1,7,,1,,1/5,,
6-1[8:1],5,7,4,6,,3-8[8:1],4,2,5,3,,6,7,8,1,2h[8:1],,,1h[8:1]/5h[8:1],,,8/4,,
1w5[8:1],,5,,,,,,
3v6[8:1],5,4,7,3,,7v2[8:1],1,8,3,7,,3h[8:1],,8,,
7v4[7:1],1,5,2,7,,3v8[8:1],5,1,6,3,,7h[8:1],,4b,,
7,7,6,6,5,5,4,4,3,3,2,2,1,,5/7,,
6b,5b,6b,,2b,1b,2b,,4b/8b,3/7,2/6,1/5,
{32}8,7,6,5,4,3,2,1,8-4[8:1],,,,,,,,
{8}8b/6-1[8:1],,6/3-7[8:1],,3/5-8[8:1],,5/4-1[8:1],,4/7-4[8:1],,7/2>8[4:1],,2,,
5-1[8:1],,2-5[8:1]/5,,2/7<4[8:1],,1-5[8:1]/7,,1<6[8:1]/5,,1>4[8:1]/4,,1w5[8:1]/6,,1,,
4-8[8:1]/8-5[8:1],,4<7[8:1]/8-3[8:1],,4>1[8:1]/8p4[8:1],,4/8,,
1>4[8:1]/5q1[8:1],,1<6[8:1]/5-2[8:1],,1w5[8:1]/5,,1,,
1/2,3/8,7/8,1/6,1v4[8:1]/8-5[8:1],2/7,,,
{16}
6,6,3,3,7,7,2,2,
{32}
8,7,6,5,4,3,2,1,8<6[8:1],,,,,,,,
{32}
8/5-1[8:1],4,3,,,,,,1p4[8:1],2,3,,,,,,4<7[8:1],3,2,,,,,,4>2[8:1]/3b,,,,,,,,
4/1-5[8:1],8,7,,,,,,5p8[8:1],6,7,,,,,,8>3[8:1],7,6,,,,,,8b/7-4[8:1],,,,,,,,
7/4-8[8:1],3,2,,,,,,8<5[8:1],1,2,,,,,,5q1[8:1],4,3,,,,,,1-5[8:1],2,3,,,,,,
5<8[8:1],4,3,,,,,,5>2[8:1]/4,,,,,,,,5bw1[8:1]/6b,,,,,,,,,,,,,,,,
8-4[8:1],7,6,,,,,,4-8[8:1],5,6,,,,,,8w4[8:1],7,6,,,,,,8,,,,,,,,
1-5[8:1],2,3,,,,,,5-1[8:1],4,3,,,,,,1w5[8:1],2,3,,,,,,1b,,,,,,,,
{16}
6/5,,6/7,,7/8,,8/1,,1-6[8:1]/2-5[8:1],,1/2,,,,,,
7,4,5,2,8,3,6,1,
{32}7b,6,5,4,3,2,1,8,7-3[8:1],,,,,,,,7b>7[1:2]/3,,
