&title=蟲の棲む処
&artist=かめりあ feat. Nana Takahashi
&first=-0.01
&des=MAD CHILD
&lv_5=13+
&inote_5=(161.44)
{1},
{4},,,,,,,
{16}
,,,,
D1/E1/B1/D2/E2/B2/D3/E3/B3/D4/E4/B4/D5/E5/B5/D6/E6/B6/D7/E7/B7/D8/E8/B8/Cf,,,,,,,,
5,,,,,,,{32}3x,4x,{16}3x,,,5,,,6,,75,,,,,,,4,
4,,,,,,,,35,,,,,,6,,6,,6,,,,4,,4,,45,,,,
3,4,3,,3,,E2/3,,3,,4x/6,,6,,6/B8,,6,,2/5x,,3,,4x/8,,7,,6x/1,,2,,3x/7,,6,,
1,7,4,5,2,8,3,6,1,7,3,5,2,8,4,6,
{32}2,3,4,5,6,7,8,1,2,3,4,5,6,7,8,1,
{12}5,5,5,4,4,4,
{4}8pp3[4:5]*qq5[4:6],,,,,,,
{32}E5,E6,E7,E8,E1,E2,E3,E4,
{16}5xh[4:1],,,,
{12}1,1,1,
{16}3x>5[4:1],2x,3x,2x,3x,,,{32}2,3,
{32}4h[32:4],,,,6,5h[32:7],,,,,,,4h[32:4],,,,
{16}7h[16:2],,,68,,5w1[8:1],,1,
1,,,,
{48}A5,E5/E6,B4/B5/B6,B3/C/B7,E3/B1/E8,A2/A1/A8/D1/D2,,,,,,,
{16}7x>4[16:3],5x,6x,5x,7x,,,,
2h[16:1],8h[16:1],2h[16:1],8h[16:1],4h[16:1],6h[16:1],4h[16:1],6h[16:1],
1h[16:1],8h[16:1],2h[16:1],7h[16:1],3h[16:1],6h[16:1],4h[16:1],5h[16:1],
{16}4xh[4:1],,,,
{12}8,8,8,
{16}6x<4[4:1],7x,6x,7x,6x,,,{32}7,6,
{32}5h[32:4],,,,3,4h[32:7],,,,,,,5h[32:4],,,,
{16}2h[16:2],,,31,,4w8[8:1],,8,
8,,,,
{48}A4,E5/E4,B5/B4/B3,B6/C/B2,E7/B8/E2,A7/A8/A1/D1/D8,,,,,,,
{16}2x<5[16:3],4x,3x,4x,2x,,,,
7h[16:1],1h[16:1],7h[16:1],1h[16:1],5h[16:1],3h[16:1],5h[16:1],3h[16:1],
8h[16:1],1h[16:1],7h[16:1],2h[16:1],6h[16:1],3h[16:1],5h[16:1],4h[16:1],
Cf,,,,,,
3,,3,,3,,3qq4[4:2],,3,,3,,,,,,6,,6,,6,,6pp5[4:2],,6,,6,,,,,,4,,4<7[8:3]*-8>3[4:3],,,,,,,,,,,,,,,,
7h[4:1],,,,
Ch[8:1],,,,
6h[4:1],,,,,,
2,,2,,2,,2pp1[4:2],,2,,2,,,,,,7,,7,,7,,7,,7,,
{16}B4,B3,B2,B1,B8,B7,B6,B5,B4,B3,B2,B1,B8,B7,B6,B5,
{32}E4,E3,E2,E1,E8,E7,E6,E5,E4,E3,E2,E1,E8,E7,E6,E5,
{64}A3,E3,A2,E2,A1,E1,A8,E8,A7,E7,A6,E6,A5,E5,A4,E4,A3,E3,A2,E2,A1,E1,A8,E8,A7,E7,A6,E6,A5,E5,A4,E4,
{16}3x-7[12:1]*-7[12:1],,,,,,,,7-2[12:1]*-4[12:1],,,,,,,,3xqq8[16:5]*pp6[16:5],,,,,,,,,,,,
7-4[8:1]/1,,62,,
7/1h[4:1],,,,8,,3,4,2-5[8:1],,,,2/8h[4:1],,,,
1,7,1,7,2,6,2,6,1,2,3,4,1,8,7,6,
1-4[8:1],,,,1/5,,6,,7-4[8:1]/5,,,,7/1h[4:1],,,,
8,2,8,2,7,3,7,3,8,7,6,5,3h[8:1]/4,,6,5,
7h[4:1],,,,1,,3,5,4>1[8:1]*-8<5[4:1],,,,4,,,,3-5[12:1]*-1[12:1],,,,3,,,,
6,75,,8,1,4,3,,7/2h[16:2],,,13,,,5,64,,,87,,61,,4,5,63,,,1,28,,
5,4,6,3,6,3,7,2,7,2,
8-6[8:1],,,,8-4[8:1]/3<8[4:1],,,,3/8>3[8:1],,,,5s1[16:4],,,,5/4h[8:3],,,,,,
2,,2<4[4:1],,,4,,,3,,2,,2h[8:3],,3>5[4:1],,,,,,,,,,1,,1h[8:3],,2<4[4:1],,,,,,3,,2,2h[16:3],,,{32}1,8,7,6,
{16}1-3[8:1]/5,,,,1-5[8:1]/6>1[4:1],,7,,6/1<6[8:1],,,,4-8[8:1],,,,4/5h[8:2],,,,
7,,68,,17,,3,24,,6,57,,18,,,35,,,35,,17,,,46,,,46,,27,,,35,,,35,,4h[4:1],,,,6<3>6<3>6<3>6<3[4:13],,,,
Ch[4:13],,,,B4,,,,,,,,B5,,,,,,,,B4,,,,,,,,B5,,,,,,,,B4,,,,,,,,B5,,,,,,,,B4,,,,
5xh[4:1],,,,
{24}6x,7x,8x,1x,2x,3x,
{16}7h[8:1]/4xh[8:1],,,,8/1-6[8:1],,7,7,1>4[8:1],,5,5,1-5[8:1],,8,8,1-7[12:1],,6,6,1>4[8:1],,5,5,1-5[8:1],,7,7,1,,8,8,{32}1x/7x-3[8:1],2x/6x,3x/5x,4x,,,,,
{16}7<4[8:1],,1,1,7-1[12:1],,2,2,7,,3,3,
6h[16:1],3h[16:1],6h[16:1],3h[16:1],5h[16:1],4h[16:1],5h[16:1],4h[16:1],
6h[16:1],3h[16:1],6h[16:1],3h[16:1],7h[16:1],2h[16:1],7h[16:1],2,
{32}8x/1x,7x/2x,6x/3x,5x/4x,,,,,
{16}1/8-3[8:1],,2,2,8<5[8:1],,4,4,8-4[8:1],,1,1,8-2[12:1],,3,3,8<5[8:1],,4,4,8-4[8:1],,2,2,8,,1,1,1h[16:2],,,,{32}8x/2x-6[8:1],7x/3x,6x/4x,5x,,,,,
{16}2>5[8:1],,8,8,2,,7,7,
3h[16:1],6h[16:1],4h[16:1],5h[16:1],2h[16:1],7h[16:1],4h[16:1],5h[16:1],
1h[16:1],7h[16:1],3h[16:1],5h[16:1],2h[16:1],8h[16:1],4h[16:1],6,
{32}
1bx,2x,3x,,,,2b/8bx,7x,6x,,,,8b/2bx,3x,4x,,,,1b/7bx,6x,5x,,,,
8x/1x,7x/2x,6x/3x,5x/4x,,,,,
8b/2bx,3x,4x,,,,1b/6bx,5x,4x,,,,8b/3bx,4x,5x,,
7xh[16:1],,5xh[16:1],,6xh[16:1],,4xh[16:1],,5xh[16:1],,3xh[16:1],,4xh[16:1],,2xh[16:1],,
8bx,7x,6x,,,,6b/2bx,3x,4x,,,,3b/7bx,6x,5x,,,,5b/1bx,2x,3x,,,,
8x/1x,7x/2x,6x/3x,5x/4x,,,,,
2b/8bx,7x,6x,,,,7b/1b,2x,3x,,,,3b/5bx,6x,7x,,2bx,,,,2bx,,,,
8b/2bx,3x,4x,,,,1b/7bx,6x,5x,,,,5b/3bx,2x,1x,,6bx,,,,6bx,,,,
1b/6bx,5x,4x,,,,8b/3bx,4x,5x,,,,3b/7bx,8x,1x,,,,,,,,
{16}1qq6[16:77],{8},,,,,,,,,5qq2[8:29],,,,,,,,,,,
,,,,,,,,,,,,,,,,
,,,,,,,,,,,,,,,,
,,,,,,,,,,,,,,,,
,,,,,,,,,,,,,,,,
,,,,,,,,,,,,,,,,
,,,,,,,,,,,,,,,,
,,,,,,,,,,,,,,,,
,,,,,,,,,,,,,,,
