&title=Tiger Rampage
&artist=sasakure.UK
&first=-0.055
&des=A83
&lv_5=14
&inote_5=(150)
{1},
{1},
{1},
{1},
{1},
{1},
{1},
{1},
{1},
{16},,,,,,,
,
,,,,,3,3,5,
{16}4,{24}7,6,5,{16}3,4,2-4[12:1],,
,,1-5[12:1],,,1/8,,,,
{16},6h[16:5],,,4,,5>2[8:1],,
,5/6,,,
5,,4,,
{16},7h[16:5],,,5,,6>3[8:1],,
,6/7,,,
6,,5,,
{16},8h[16:5],,,
6,,7<4[8:1],,
,8/7,,,
7,,6,,
{16},1h[16:3],,,
7,{48}7h[12:1],,,,3h[12:1],
,,,8h[12:1],,
,,4h[12:1],,,,1h[12:1],
,,,5,,,,4,,,7,,,4,,,
{16}5,3,5,4,
4,,6,5,
6,5,7,5,
7,4,5,4,
{16}6,4,6,5,
5,,3,4,
3,4,3,5,
3,6,4,6,
{16}3,5,3,4,
4,,6,5,
6,5,7,5,
7,
4,{32}5,,3,4,
{16}3,5,2,6,
1,7-2[8:1]/8-5[8:1],,,
,7b/8b,,,
,1>4[12:1],1,7,
{16}1,,,8<5[12:1],
8,2,8,,
,3v6[12:1],3,5,
3,,,,
{16},1/3,,,
5,,6h[8:1],,
5,7,,,
4,,3>1[12:1],,
{16}4,3,,,
,3,,7,
,6/8,,,
4,,3h[8:1],,
{16}4,2,,,
5-8[8:1],,8V63[16:3],8,
,,,,
,1,,2,
{16},1/3,,,
5,,6h[8:1],,
5,7,,,
4,,3h[8:1],,
{16}4,2,,{24}5,6,7,{16}3,8,3,
6,1,6,3,
6h[8:1],,5,8,
{16}5h[8:1],,7,2,7,
1,4
,3,
6,3,8,5,
8b>4[4:1],,,,
{16},8,,,
8,,7h[8:1],,
8,1/6,,,
1,,2>4[12:1],,
{16}1,2,,,
,2,,6,
,5/7,,,
1q6[8:1],,1h[4:1],,
{16},,,,
8p3[8:1],,8h[4:1],
,
,,,,
,4,,3,
{16},2/4,,,
8,,7h[8:1]
,,
8,1/6,,,
1,,2h[8:1],,
{16}1,3/8,,{24}7,6,5
,{16}1,4,1,
6,3,6,5,
4,3,4,5,
{16}6,{32}4,5,4,,{16}6z2[4:1],
3s7[6:1],,,
,
3b,,,,
,1pp6[8:3],,,
{16},,,,
,,,,
,5,,,
5pp2[8:3],,,,
{16},2,,,
2qq7[8:3],,,,
,5,,,
5h[16:5],,,,
{16},4,,4z8[4:1],
,,,4,
,4,,4s8[4:1],
,,,4,
{16},4,,4z8[4:1]
,
,,,4,
,,,,,8qq3[8:3],,,
{16},,,,
,,,,
,4,,,
4qq7[8:3],,,,
{16},7,,,
7pp2[8:3],,,,
,4,,,
4h[16:6],,,,
{16},8,8,,
2b/6b,,,,
,1/5,1/5,,
3bqq6[8:5]/7bqq2[8:5],,,,
{16},,,,
,,,,
,,,,
{32},{16},6,6,4,
{16}5,{24}2,3,4,{16}6,5,7,4,4,
5,{32}3b,2,1,8,7,6,
5,4,3,2,1,8,7,6,
{32}5,4,3-7[8:1],2,1,8,7,6,
5,4,{16}3,
,,
,,,7h[16:4]/3h[4:1],
,,,,
{16},8-4[8:1]/4>1[8:1],,1,
,4<1[4:1]/8,,,
,,,3h[16:4],
,,,,
{16},4-8[8:1]/8<5[8:1],,5,
,8>5[4:1]/4,,,
,,,7h[16:4],
,,,,
{16},8-4[8:1]/4,,1,
,4V68[4:1]
/8V24[4:1],,,
,,,,
,,,,
{16},5,,4,
,5h[16:3]/6,,,
1,,,7v5[6:1]/3,
,,,,
{16},1,,8,
,1h[16:3]/3,,,
5,,,7/3v5[6:1],
,,,,
{16},8,,1,
,8h[16:3]/6,,,
4,,,2-4[8:1]/6v5[8:1],
,,,,
{16},,,7b,
,3,3,5,
4,{24}7,6,5,{16}3,4,
2,5,5,
{16}4,{32}6,7,8,1,2,3,4,5,{16}6V83[16:3]/1b,,,
3,3v5[8:1],,5,
,,,2,
{16},1/4,,3/6,
,8/5V38[16:3],,,
6-2[12:1],,,6b,
,,,4,
{16}5,4,1,2,
1,3V16[16:3]/8,,,
6,6v4[8:1],,4,
,,,7,
{16},5/8,,3/6,
,1/4h[16:3],,,
3,3/4,,5b/1b,
,,,3-6[8:1],
{16},8-3[8:1],,3V16[16:3],
,8,,,
5-2[12:1],,,5b,
,,,6>3[8:1],
{16},1<6[8:1],,6q3[16:3],
,1,,,
4,4,,5,
4,5,8,7,
{16}8,6,5,7,
4,8b,4,5,2b,5,4,7b,
1,8,2,7,
{16}3,6,,{32}4b/5b,3/6,2/7,
1p4[8:1]/8q5[8:1],{16},,,
,,,,
{16},{24}7,6,5,4,3,2,7,6,5,4,3,2,
{16}1V36[16:3]/7b,,,5,5,,{24}7b,8,1,{16}2,,3-8[8:1],
{16},8v2[8:1],,3,,{24}7b,6,5,{16}4,,5/1,,7/4,,8,2/8,,
{16}3,3/4,,5/6,
,8V63[16:3]/7,,,
4,4,,{24}2b,1,8,{16}7,,6-1[8:1],
{16},1v7[8:1],,6,
,{24}2b,3,4,{16}5,,4/8,,2/5,
,3,4,2,
{16}8,
1,7,5,
6,{24}4b/7,,,{16},6V84[32:5]/2-4[32:3],5/1,,{24}2/6,,,{16},,,
{16}8,1,7,5,
6,{24}7/4b,,,{16},
8v5[12:1]/2v5[12:1],3/7,,2/8,
,,,,
{16},2/5,,1/4,
,8/3h[16:3],,,
1,8/6,,{24}7/5,,,{16},,7-4[8:1]*-5[12:1],
{16},4-8[16:2],,
7b,
,,,3h[16:2],
,1,8,6,
6,8,1,3,
{16}3,1,8,6,
6,7,,,
8,3/1,,4/2,
,,,2>4[12:1]*-5[8:1],
{16},4v1[8:1]
,,2b,,,,6h[8:1],
,8,1,3,
3,1,8,6,
{16}6,8,1,3,3,2,,,
{24}3,4,3,6,5,6,
{16},,,3b/7b,
{32},,,,,,1b/5b,2,
3,4,5,6,7,8,1,2,
3,4,5,6,7,8,1,2,
3,4,5,6,7,8,1,2,
{32}3,4,5,6,7,8,1,2,
3,4,5,6,7,8,1,2,
3,4,5,6,7,8,1,2,
3,4,5,6,7,8,1,2,
{32}3,4,5,6,7-3[41#16:1],8,1,,
{16},,,,
,3!-7[80#8:1],,,
,,,,
{16},,,,
,,,,
{16},3h[16:5]/4,,,5,,4<7[12:1],,
,4/3,,,
4,,5,,
{16},2h[16:4]/3,,,
,1,,8,
,1h[16:5]/7,,,
3,,2>5[12:1],,
{16},1/2,,,
2,,3-6[8:1]*V14[16:3],3,
,,,,
,,,7,
{16},8h[16:5]/1,,,
2,,1>4[12:1],,
,1/8,,,
1,,2,,
{16},7h[16:3]/8,,{24}1,,
,{16}6,1,6,
3,8,3,6,
3h[8:1],
,4,1,
{16}4h[8:1],,2,7,2,
8,5,6,
3,6,1
,4,
1bp8[16:6],,,,
{16},6h[16:10],,,
,,,
,,,,
8,7,5,6,4,
{16}5,3h[32:1],,3h[16:3],
,,1,1,6h[8:1],,8,8,
2h[8:1],,4,4,
{16}7h[8:1],
,5
,5,
3h[16:3],,,5,4,6,5,8,,
{24}4,6,4,6,4,6,
4,6,4,6,4,6,
4,6,4,6,4,6,
4,6,4,6,4,6,{32}3,2,1,,{32}7,6,
{32}5,,2,3
,4,5,1,2,3,4,
8,7,6,5,7,6,
5,4,3b,,,,,,,,{16}4,6,5,
{16}7,{32}1,8,{16}1,5,
3,4,{32}2,,8,1,
{16}8,4,6,5,
{16}7,2b/8h[16:2],,,
{16}5/3h[16:2],,
,6h[16:2]/8,
,,1/2h[16:2],,
,4/6h[16:2],,,
1h[16:2]/7,,,2/4h[16:2],
{16},,5-1[16:1]/6,,
,5b/3-8[16:1],,,
7v4[16:1],,,1-5[16:1],
,,6-2[16:1],,
{16},4v1[16:1],,,
7-4[16:1],,,3-7[16:1],
,,5-8[16:1],,
,2b-6[16:1]/5,,,
{16}2/7v4[16:1],,,7/3-8[16:1],
,,3/5-1[16:1],,
,5/2-6[16:1],
,,
8v5[16:1]/2,,,8/4-1[16:1],
{16},,4/6,,
,7b/8h[32:96],,,
,,,,
,,,,
{16},,,,
,,,,
,,,,
,,,,
{16},,,,
,,,,
,,,,
,,,,
{16},,,,
,7,{24}1/6,2/5,3/4,,
E
