&title=くうになる
&artist=MIMI/可不/初音ミク
&first=0
&des=HF_MeLaN
&lv_5=13
&inote_5=(166)
{4},,,,,,,,,,{16},{32},
{8}
3,4,5,6,7h[8:30],,,1,2,,,2,3,,,3,2,,,2,3,,,3,4,,,4,5,,5,4,3h[4:1],,,,
6h[4:2],,5,,4,,3,4,2h[4:1],,
6,3,5,4,6,3,5h[4:1],,4h[4:1],,7,7,5,6,3,4,2-4[8:1],,6-4[8:1],,,,
3h[4:2],,4,,5,,6,5,7h[4:1],,
3,6,4,5,3,6,4h[4:1],,5h[4:1],,3,3,4,2,7,5,6-4[8:1],,2-5[8:1],,,,
7h[4:1],,5h[4:1],,6h[4:1],,
3,4,2h[4:1],,6,3,5,4,7,3,5h[4:1],,4,3,6,5,4,3,7,6,5-2[8:1],,7-4[8:1],,,,
2h[4:1],,4h[4:1],,3h[4:1],,
6,5,7h[4:1],,3,6,4,5,2,6,4h[4:1],,5,6,3,4,5,6,2,7,4,5,3-1[8:1],,
7-5[8:1],,78,,2-4[8:1],1,2,6,6-8[8:1],,65,,3-1[8:1],4,3,8,
8<6[8:1],,18,,4>2[8:1],5,4,7,7<5[8:1],,78,,3>1[8:1],4,3,8,
8-5[8:1],,28,,4-1[8:1],6,4,7,7-4[8:1],1,7,3,3-8[8:1],5,3,6,
6>3[4:1],,3>8[4:1],,8<5[4:1],,5,,2h[4:1],,5,3,6,4,7h[4:1],,
{16}
2,,3,,46,,7,5,6,,45,,45,,,,
{8}
2,4,35,6,4,5,2h[4:1],,4-6[8:1],3,42,,4-7[8:1],3,42,,5,3,47,5,6-3[8:1],4,6,,
2,4,3h[8:1]/5h[8:1],,4h[8:1]/5h[8:1],,4h[8:1]/6h[8:1],,5h[8:1]/7h[8:1],,
4h[8:1]/8h[8:1],,3h[8:1]/7h[8:1],,6h[8:1]/2h[8:1],,5h[8:1]/1h[8:1],,
2,2,4,4,5,5,7,7,46,46,37,37,
{16}
2,8,2,8,2-5[8:1],8,2,8,2b,,,,
{16}
6h[8:1],,4h[8:1],,8h[4:1],,,,2h[8:1],,1h[8:1],,3h[8:1],,5,4,6,,1h[8:1],,7h[4:1],,,,
2h[8:1],,8h[8:1],,4h[8:1],,6,5,7,,1,,
8h[8:1],,7h[8:1],,6h[8:1],,5h[8:1],,7h[8:1],,6h[8:1],,5h[8:1],,4h[8:3],,6h[4:1],,,,
,,,,7h[4:1],,,,3h[8:1],,5h[8:1],,1h[4:1],,,,7h[8:1],,8h[8:1],,6h[8:1],,
4,5,3,6,4,5,3h[4:1],,,,7h[8:1],,1h[8:1],,5h[8:1],,3,4,2,,8,,
1h[8:1],,7h[8:1],,5h[8:1],,6h[8:1],,2h[8:1],,8h[8:1],,3h[8:1],,4h[8:1],,2-6[8:1],,,,
,,,,
{8}
7h[4:1],,5,6,4-1[8:1],,8,,7h[4:1],,5,6,4-1[8:1],,
8<5[8:1],,4>1[8:1],,7<4[8:1],,3>8[8:1],,5-7[8:1],,5-3[8:1],,5-1[8:1],,5,,
2,8,3h[8:1],,4/3h[8:1],5,6/3h[8:1],,5/3h[8:1],6,7/3h[8:1],,
6/3h[8:1],7,8/3h[8:1],,37,6,45,3,45,6,35,2,46,7,18,18,27,27,
{16}
3,6,3,6,4,5,4,5,
{8}
4<7[8:1]*>1[8:1],,4b-8[8:1],,34,,2-4[8:1],1,2,6,7-5[8:1],8,7,,
4-7[8:1]/6,3,24,,8/1-5[8:1],2,13,,46,7,18,2,3/5-1[8:1],6,57,,
8-6[8:1],2,8,4-2[8:1],5-1[8:1],4,5,,3-1[8:1],7-5[8:1],3,7,8-4[8:1],6,8,,
7<4[8:1]/3,,7/1-5[8:1],2,18,6,7-3[8:1],,2-6[8:1],1,8-5[8:1],7,1,2,
{16}
3,4,3,4,3-8[8:1],4,3,4,
{8}
3b-5[8:1],,3/7-4-6-1b[4:1],6,7/2-5[8:1],,2-4-8[4:1],8,2,6,7>2[8:1]*<4[8:1],,7,,
3-1-7[16:3],4,3,,6-8-2[16:3],5,6,,4-1[8:1],3,5-8[8:1],6,2q4b[4:1],3,2,,
6-4[8:1],7,6/2-6[8:1],1,2>5[8:1]/8<5[8:1],7,28,,6<3[4:1],,3>6b[4:1],,
4-8[8:1],5,4,,5,6,2-6[8:1],2,1-5[8:1],1,8-4[8:1],8,7-3[8:1],7,
1,1,28,28,
{16}
3,7,4,6,1,7,3,5,
{4}
2b-8-6-2b[4:5]*-4-6-2b[4:5],,,,,,,
{16}
5h[8:1],,3h[8:1],,7h[8:1],,2,8,3,,
{8}
4h[8:1],5h[8:1],6h[8:1],7h[8:1],8h[8:1],1h[8:1],2h[8:1],3h[8:1],
4-1-3[4:1]*-7-5[4:1],4,,,,,,,
E
