&title=Testify
&artist=void (Mournfinale)
&first=3.3358
&des=写谱王小桃
&lv_5=15
&inote_5=(178)
{4}
4h[64:93]/5h[64:93],,
(178)
{64},,,,,,,,,,,,,,,,,,,,,,,,,,,,,,,,,,,,,,,,,,,,,,,,,,,,,,,,,,,,,,3b/6b,2b/7b,{2}1b>8b[4:15]/8b<1b[4:15],3h[4:1]/4h[4:3],5h[4:3],6h[2:1],{4}4,3,5,6,4h[2:1]/5h[2:1],,,,,6,5,4,{8}4h[16:6],,,{32}6,,,4,{4}3h[4:1],5,{16}6,5h[16:3],4h[8:1],,{4},,{32}8-4b[8:1],1-5b[32:3],2,3,4,5,6,7,
{8}8b/1b/Cf,,8-4b[8:1]/1-5b[8:1],2/7,8bx/1bx/Cf/B2/B3/B6/B7,,8-4b[8:1]/1-5b[8:1],2/7,8bx/1bx/Cf/B1/B2/B3/B4/B5/B6/B7/B8,,2-6b[8:1]/1-5b[8:1],3/8,2bx/1bx/Cf/B1/B2/B3/B4/B5/B6/B7/B8/E1/E3/E5/E7,,7-3b[8:1]/8-4b[8:1],1/6,7bx/8bx/Cf/B1/B2/B3/B4/B5/B6/B7/B8/E1/E3/E5/E7/E2/E4/E6/E8,,3-7b[8:1]/4-8b[8:1],5/2,3bx/4bx/Cf/B5/B6/B7/B8/B1/B2/B3/B4/E5/E7/E1/E3/E6/E8/E2/E4/A1/A2/A5/A6,,6-2b[8:1]/5-1b[8:1],4/7,6bx/5bx/Cf/B4/B3/B2/B1/B8/B7/B6/B5/E5/E3/E1/E7/E4/E2/E8/E6/A8/A7/A4/A3/A1/A2/A5/A6,,8-4b[8:1]/1-5b[8:1],4/5,8bx/1bx/Cf/B4/B3/B2/B1/B8/B7/B6/B5/E5/E3/E1/E7/E4/E2/E8/E6/A8/A7/A4/A3/A1/A2/A5/A6/D1/D2/D3/D4/D5/D6/D7/D8,,2/5,4/7,{1}1-4^3-1[4:11]b/8-5^6-8[4:11],,,
{4},{16}E1,,E1,,3,4,1,4,5,8,5,6,{8}2x-4[16:1]b/5,5,E1,5/6,7x-5[16:1]/4,4,E1,4/3,2x-6[16:1]b/5,6,E1,4/5,7x-3[16:1]/4,3,E1,5/4,2x-7[16:1]b/5,6,E1,4/6,7x-2[16:1]/4,3,E1,5/3,2x-7[16:1]b/4,6,E1,4/6,7x-2[16:1]/5,3,E1,5/3,{16}4,5,4,5,4/2,,3/4,,5,4,5,4,5/7,,6/5,,3,5,4,4,4/1,,3/5,,6,4,5,5,5/8,,6/4,,3,4,4,4,4/1,,3/5,,6,5,5,5,5/8,,6/4,
,5,5,5,5,5/8,,6/3,,4,4,4,4,4/1,,3/6,,
5h[8:1]/4h[8:1],,,,6/2x-7-4^3^4-7-4-2-4[2848#1:23]b,,5,,4,,3
,,,,5,,6,,,,E1,,3,,,,E1,,6,4,5,4,3/E1,B8,4/E8,A7,E2,,3/4,,6/E1,B1,5/E2,A2,E8,,6/5,,D1/3,,3/4,,D1/6,,6/5,,C,3,4,4,5,5,6,C,3/8x-6^4-7[2848#1:12],,4,,E1,,6,,5,,E2,,3,5,4,5,6/1x-3^5-2[2848#1:12]b,,5,,E1,,3,,4,,E8,,6,4,5,4,3h[8:1]/7x-5^3^6[2848#1:11],,,,1x-6v3[2848#1:6]b,,,,,,,,3,5,4,5,6h[8:1]/2x-4^6^3^4[2848#1:12]b,,,,8x-3v6[2848#1:6],,,,,,,,6,,5/4x,,
1/3,,4/6,,5/7,,3/4,,7,5,4,8,4,3,7,5,6/C,,5/3,,1/4,,5/6,,3h[8:1]/4,,1,,6h[8:1]/5,,8,,1,4,3,E1,5,6,1,4,3/C,,2/7,,3/6,,4/8,,3/4h[8:1],,8,,6/5h[8:1],,1,,1/6,,2/7,,3/4,,1/5,,4,1,5,8,2,4,1,6,3,,5/7,,2/6,,4/8,,5,8,4,1,7,5,8,3,6,,4/2,,7/3,,5/1,,2/7x-5[2848#1:2],,6x/5xh[8:1],,3,,
7/2x-4[2848#1:2]b,,3x/4xh[8:1],,6,,4/7,,2/5,,6,8,8,5,5,E1,E1,4,4,1,1,3,{24}7,2,8,1,,,{8}1x-4[2848#3:4]-2[2848#3:4]b/8x-5[2848#3:4]-7[2848#3:4]^2[2848#3:8]-4[2848#3:4]^3[2848#3:4],,1,8x-5[2848#3:4]-1[2848#1:4]-4[2848#3:4]-2[2848#3:4]^8[2848#3:12]-5[2848#3:4]^7[2848#3:8]b,,,8x-5[2848#3:4]-7[2848#3:4],,8,1x-4[2848#3:4]-8[2848#3:14]-5[2848#3:4]^8[2848#3:14],,,1x-4[2848#3:4]^1[2848#3:14]b,,,,8x-5[2848#3:4]-7[2848#3:4]/1x-4[2848#3:4]-2[2848#3:4]^7[2848#3:8]-5[2848#3:4]^6[2848#3:4]b,,8,1x-4[2848#3:4]-8[2848#1:4]-5[2848#3:4]-7[2848#3:4]^1[2848#3:12]-4[2848#3:4]^2[2848#3:8],,,1x-4[2848#3:4]-2[2848#3:4]b,,1,8x-5[2848#3:4]-1[2848#3:14]-4[2848#3:4]^1[2848#3:14]b,,,8x-5[2848#3:4]^8[2848#3:14],,,,
3h[4:1]/6h[4:1],,,4/5,,,{12}E6,E5,E4,3h[6:1],4,5,6h[6:1],5,4,4h[6:1],5,6,4h[6:1],5,6,{16}6,5,6,4,5,5,6,4,8,2,1,1,8,2,1,2,{24}7,1,7,2,8,2,7,1,8,2,8,1,{8}8x-5[2848#1:3]/1x-4[2848#1:3],,,,
{64}1b/8b,2/7,3/6,4h[64:20]/5h[64:20],{32},,,,,,{8},{64}3/6,2/7,1h[64:21]/8h[64:37],,{32},,,,,,{16},,{64}2,3h[64:14],,,{32},,,,,,{64}1b/4b,2h[64:15]/5h[64:29],,,{32},,,,,,{64}1b,8h[64:14],,,{32},,{64}4,3h[64:14],,,{32},,{64}7,6h[64:14],,,{32},,{64}2,1h[64:6],,,{32},,{64}5b/8b,4h[64:14]/7h[64:14],,,{32},,,,,,{64}5b/8b,6h[64:21]/1h[64:14],,,{32},,,,,,{64}2,3h[64:23],,,{32},,{64}7,8h[64:15],,,{32},,{4},,{8}4h[8:1]/5h[8:1],,E6,E4,E2,E8,E6,E4,
{64}4b/8b,3/7,2/6,1h[64:20]/5h[64:20],{32},,,,,,{8},{64}2b/6b,3/7,4h[64:37]/8h[64:21],,{32},,,,,,{16},,{64}7b,6h[64:30],,,{32},,,,,,{64}3b,2h[64:22],,,{32},,,,,,{64}5b,4h[64:14],,,{32},,{64}1b,8h[64:22],,,{32},,{64}3b,2h[64:6],,,{32},,{64}3b,4h[64:22],,,{32},,{64}1b,2h[64:14],,,{32},,,,,,{64}5b/1b,6h[64:14]/8h[64:21],,,{32},,,,,,{64}5b,4h[64:23],,,{32},,{64}7b,6h[64:15],,,{32},,{4},{8}4h[8:1]/5h[8:1],,{12}5,6,4,6,5,4,3,5,3,{16}4,,,,
2/6,,5/6h[8:1],,{32}E7,B6,B5,E5,{16}1h[16:1],,4x,1,3h[8:1],,{32}E3,B3,B4,E5,{16}8h[16:1],,5x,8,6h[8:1],,{32}E7,B6,B5,E5,{16}1h[16:1],,4x,2,3h[8:1],,{32}E3,B3,B4,E5,{16}8h[16:1],,5x,7,6h[8:1],,{32}A7,E7,B6,E6,{16}1h[16:1],,5x,1,3h[8:1],,{32}A2,E3,B3,E4,{16}8h[16:1],,4x,8,6h[8:1],,{32}E8,B7,E7,,{16}1h[16:1],,6x,2,3h[8:1],,{32}E2,B2,E3,,{16}8h[16:1],,3x,7,6h[8:1],,{32}E8,B7,B6,E6,{16}8h[16:1],,5x,8,6h[8:1],,{32}E2,B2,B3,E4,{16}1h[16:1],,4x,1,3h[8:1],,{32}B7,B6,B5,B4,{16}7h[16:1],,4x,7,6h[8:1],,{32}B2,B3,B4,B5,{16}2h[16:1],,5x,2,3h[8:1],,{32}B7,C,B3/B4,E4,{16}7h[16:1],,3x,7,6h[8:1],,{32}B2,C,B6/B5,E6,{16}2h[16:1],,6x,2,3h[8:1],,{32}B7,C,B3/B4,E4,E8,B7,B6,E6,{16}3h[16:1]x,,6h[16:1]x,,8b/1b,,,,
5h[4:1],,1,1,,1,4,,2h[4:1],,8,8,,7,5,,7h[4:1],,8,8,,2,4,,2,3,2,5,4,7,6,7,{12}2,1,4,5,8,7,{16}2,2,1,1,8,8,7,7,2,3,3,4,4,5,5,6,3,4,4,5,5,6,6,7,4h[4:1],,8,8,,8,5,,7h[4:1],,1,1,,2,4,,2h[4:1],,1,1,,7,5,,{24}7h[16:1],,,4,8,2,7,1,5/2h[12:2],,,,8h[8:1],,,3,8,4,5h[8:1],,,1,5,1,8h[8:1],,,3,8,2,{16}6,8,7h[8:1],,{24}2h[8:1],,,6,2,5,4h[8:1],,,8,4,8,{16}1h[8:1],,,,{64}1/8,2/7,3/6,4/5,
{16},,,7bx/6bx,,1,8,7bx/6bx,5,4,,2bx/3bx,,8,1,2bx/3bx,4,5,,8bx/5bx,,2,1,8bx/5bx,4,3,,1bx/4bx,,7,8,1bx/4bx,5,6,,{8}1b/4b,8b/5b,2b/3b,7b/6b,{24}2,B1,6,3,B8,7,2,B1,5,4,B8,7,{4},4h[8:1]/5h[8:1],{16}8/1,E1,B1/B8,B2/B7,E3/E7,A3/A6,,,
,,2/4,,,,5/7,,,,6,5,5,4,4,3,4,2,2,3,5,1,1,3,6,8,8,4,6,7,7,5,8b,,4h[4:1],,8b,,5h[4:1],,1b,,3,4,1b,6,5,,{12}2b/7b,8b,1b,7b/2b,1b,8b,2b-4[8:1]b/7b-5[8:1],,,,,,
{16}4x,5x,5,5/7b,,,5,4,4,4/2b,,,5,3,6,4,1,2,7,3,6,8,7,2,{24}6,4,8,3,5,1,6,4,7,3,5,2,{12}7x-5[2848#2:5],8,1,8x-5[2848#2:5],1,2,1x-4[2848#2:5],2,1,5h[12:1],4h[12:1],6h[12:1],{16}8,7,2,6,3,1,2,7,{24}3,5,1,6,4,8,3,5,2,6,4,7,{16}3,5,6h[8:1]/8,,4,3h[8:1]/1,,5,7/8,,4,2/1,,5,6/2h[8:1],,6,4,8/3h[8:1],,5,6/1h[8:1],,4,8,5,6,1,4,3,7hx[8:1],,
1hbx[16:1],8hx[16:1],7hbx[16:1],8hx[16:1],{12}2hbx[12:1],1hx[12:1],2hbx[12:1],{16}8hx[16:1],1hbx[16:1],2hx[16:1],1hbx[16:1],{12}7hx[12:1],8hbx[12:1],7hx[12:1],{16}8,7,2,6,4,1,2,7,{24}3,5,1,6,4,8,3,5,2,6,4,7,{16}3,1,5,1,5,7,3,B2,5,B3,5,6,3,4,5,6,{12}2x-4[2848#2:5]b,1,8,1x-4[2848#2:5]b,8,7,8x-5[2848#2:5]b,7,8,4h[12:1],5h[12:1],3h[12:1],{16}1,2,7,3,5,8,7,2,{24}6,4,8,3,5,1,6,4,7,3,5,2,{16}6,8,4,8,4,2,6,B7,4,B6,4,3,6,5,4,3,{32}A2/A7,D2/D8,A1/A8,,
{16},,1/8,,,,4/5,,{64}1,E1,B8,B7,{16}E7/4,,{64}1,E1,B8,B7,{16}E7/4,,3/6,,{64}8,E1,B1,B2,{16}E3/5,,{64}8,E1,B1,B2,{16}E3/5,,3,5,4,6,3h[16:1],5h[16:1],4h[16:1],6h[16:1],{12}5,1,3,6,8,4,{16}3,1,4,8,1,5,8,6,3,6,8,6,1,8,3,1,3,6,1,6,1,8,3,2,
3-8[16:1]b/6-1[16:1],,,,{64}E3/E7,B2/B7,B8/B1,E1,{16},,,3/6,,{32}6/8,E1,B1,B2,E3/1,E1,B8,B7,E7/3,,,,5/6h[8:1],,,,8,E1,B1,B2,E3/8,E1,B1,B2,E3/3,,,,4/3h[8:1],,,,1,E1,B8,B7,E7/1,E1,B8,B7,E7/6,,,,{24}6h[8:1],,,5,5,5,8h[8:1],,,1,1,1,5h[8:1],,,4,4,4,{16}8,3,6,,{24}3h[8:1],,,4,4,4,1h[8:1],,,8,8,8,4h[8:1],,,5,5,5,{16}1,6,3,,
1/8,,{64}8,E1,B1,B2,{16}E3/5,,{64}8,E1,B1,B2,{16}E3/5,,6/3,,{64}1,E1,B8,B7,{16}E7/4,,{64}1,E1,B8,B7,{16}E7/4,,3/6,,{64}8,E1,B1,B2,{16}E3/5,,{64}1,E1,B8,B7,{16}E7/4,,3,6,4,5,1,8,4,5,,,3,4,1,4,5,,6,5,8,5,4,,3,6,4,5,2,1,4,1,8,,7,8,5,8,1,,
4/5,,{32}5/6h[8:1],,,,8,E1,B1,B2,E3/8,E1,B1,B2,E3/3h[8:1],,,,1,E1,B8,B7,E7/1,E1,B8,B7,E7/6,,,,5,,,,4/3h[8:1],,,,1,E1,B8,B7,E7/1,E1,B8,B7,E7/6h[8:1],,,,8,E1,B1,B2,E3/8,E1,B1,B2,E3/3,,,,4,,,,{24}3,5,3,6,4,6,3,7,3,6,8,6,3,8,4,6,1,5,4,7,3,5,2,6,{12}3h[12:1],1h[12:1],4h[12:1],5h[12:1],8h[12:1],6h[12:1],1h[12:1],5h[12:1],4h[12:1],8h[12:1],3h[12:1],6h[12:1],
{12}2x-7[2848#2:15]<3[2848#2:16]b,E2,B1,B8,E8,A7,3h[8:1],,,,,,7x-2[2848#2:15]>6[2848#2:16],E8,B8,B1,E2,A2,6h[8:1],,,,,,2x>7[2848#2:15]b,D3,A3,A4,A5,A6,A7/2x>7[2848#2:15],D3,A3,A4,A5,A6,A7/2x-7[2848#2:15]<3[2848#2:16]b,E2,B1,B8,E8,A7,3h[8:1],,,,,,7x<2[2848#2:15],D7,A6,A5,A4,A3,A2/7x<2[2848#2:15]b,D7,A6,A5,A4,A3,A2/7x-2[2848#2:15]>6[2848#2:14],E8,B8,B1,E2,A2,6h[8:1],,,,,,{8}6/8,5/1,,3/1,4/8,,5/7,4/2,,2/3,6/7,,1v3[2848#2:12]b/8v6[2848#2:12],,,,
{12}1b/8b,1b/8b,1b/8b,{16}2,7,4,5,1,4,8,6,3,1,2,8,{24}2,6,1,7,3,8,2,4,1,7,5,8,{12}2x-4[2848#2:5]b,1,8,7x-5[2848#2:5],8,1,{24}2h[8:1],,,7,2,8,1h[8:1],,,7,1,6,4h[8:1],,,1,4,7,8h[8:1],,,{16}6h[16:1],3h[16:1],{24}7h[8:1],,,2,7,1,8h[8:1],,,2,8,3,5h[8:1],,,8,5,2,1h[8:1],,,,,,3b,2b,1b,8b,7b,6b,5bh[8:1],,,{48}1b,4b/8b,3b/7b,2b/6b,1bh[48:7]/5bh[48:7],,{16},,,,8,1,2,7,{12}8b/4,1b/5,7b/3,2b/6,4b/8,5b/1,3/7b,2/6b,1/5b,8/4b,1/5b,7/3b,{24}6/2b,,,2,1,5,4,8,7,3h[8:1],,,{64}1,E1,B8,B7,{16}E7,1h[8:1],,8,,,,{24}3/7b,,,7,8,4,5,1,2,6h[8:1],,,{64}8,E1,B1,B2,{16}E3,8h[8:1],,1,,,,
{64}1b/8b,2b/7b,3b/6b,4b/5b,{16},,,{64}1b-5b[8:1]/8b-4b[8:1],2b/7b,3b/6b,4bh[16:1]/5bh[16:1],{16},{64}3b/6b,2b/7b,1b/8b,,{16},1b/8b/B1/B2/B3/B4/B5/B6/B7/B8/Cf,,,,{64}2b-6b[8:1]/1b-5b[8:1],3b/8b,4b/7b,5bh[16:1]/6bh[16:1],{16},{64}4b/7b,3b/8b,2b/1b,,{16},2b/1b/B2/B3/B4/B5/B6/B7/B8/B1/Cf/E1/E2/E3/E4/E5/E6/E7/E8,,,,{64}7bw3b[8:1]/8bw4b[8:1],6b/1b,5b/2b,4bh[16:1]/3bh[16:1],{16},{64}5b/2b,6b/1b,7b/8b,,{16},7b/8b/B7/B6/B5/B4/B3/B2/B1/B8/Cf/E1/E8/E7/E6/E5/E4/E3/E2/A1/A2/A3/A4/A5/A6/A7/A8/D1/D2/D3/D4/D5/D6/D7/D8,,,,{64}1b/8b,2b/7b,3b/6b,4bh[16:1]/5bh[16:1],{16},{64}3b/6b,2b/7b,1b/8b,,{16},
{64}1b/8b,2b/7b,3b/6b,
4b*>7b[64:173]*>6b[64:205]*>5b[64:237]/5b*<2b[64:173]*<3b[64:205]*<4b[64:237],
{1},,,,,,
E
