&title=MARENOL
&artist=LeaF
&first=0.075
&des_5=霧氷優佳子
&lv_5=14
&des=霧氷優佳子
&clock_count=4
&inote_5=(140){1},
{48}2b/3b,1/4,8V27[48:34]/5V36[48:34],7/6,,,,,,,,,
{16},,,,,,,,,,,,,,,,,,,,
4,4,,6,5,,4/7,,
4h[4:1]/7-5[8:1],,,,,,,,1-3[8:1]/4h[4:1],,,,,,,,
8-6[8:1]/5h[4:1],,,,,,,,2-4[8:1]/5h[4:1],,,,,,,,
7-1[8:1]/5h[4:1],,,,,,,,6-8[8:1]/4h[4:1],,,,,,,,
5-7[8:1]/3h[4:1],,4,,5,,2,,1-3[8:1]/4h[4:1],,8,,1,,5,,
6-1[8:1]/5h[4:1],,7,,6,,4,,2-5[8:1]/4h[4:1],,1,,2,,6,,
7-4[8:1]/8h[4:1],,6,,7,,1,,3-8[8:1]/2h[4:1],,1,,3,,2,,
4,5,4,5,3,6,2,7,1,8,1,8,2-5[12:1]/7-4[12:1],3/6,4/5,,2b/7b`E5f,,,,,,,,E1,,
E7,,C,,E3,,
1b/8bp1[8:1],,,7,7-2[8:1],,5,,7,,3,,2/8,,1/7,,
6/8p1[8:1],,,5,5>2[8:1],,7,,5/6,,7,,2/8<3[6:1],,1/3,,
4/8,,,2,2,,8,,1>6[6:1],,7/8,,1/6,,7,,
{32}8,E8,E7,A6,,,,1b,B1,C,B5,A5,,,,2x,E3,E4,A4,,7,,7,,
{64}A1f,D1,A8,D8,A7,D7,A6,D6,A5,D5,A4,,,,,,
{16}6xpp8[8:1],,,4,4>1[8:1],,5,,4,,7,,6/8,,5/7,,
4qq2[8:1]/6,,,6,6<1[8:1],,5,,6,,3,,2/8,,1/7,,
6/8h[8:1],,7,7,3,4,6,5,7h[8:1],,8,8,6,5,3,4,
2-4[12:1],,,1,1-5[8:1],,,8,8-6[12:1],,,4<4[16:17]*<4<4b[16:34],4h[8:1],,
Ch[12:1],,,,,,,,,,,,,,,,Ch[12:1],,,,,,,,,,,,,,,,,,
5,,,,5,,,,6,,,,6,,,,7,,,,8,,,,1-5[8:1],,,,,,,,
3-6b[11.66#128:1]/7-2b[11.66#128:1],,,,,,,,,,,,,,,,,,,,,,,,,,,,,,,,
1h[32:1],5h[32:1],2h[32:1],6h[32:1],3h[32:1],7h[32:1],
4h[32:1],8h[32:1],3h[32:1],7h[32:1],2h[32:1],6h[32:1],1h[32:1],5h[32:1],
2h[32:1],,7b/3b,,,,E7,,,,E5,,,,E3,,,,
1V35V71[8:8]/Cf,,,,,,,,5,,,,,,,,
1V35V71[8:8],,,,,,,,5,,,,,,,,
1V35V71[8:8],,,,,,,,5,,,,,,,,
1V35[8:4],,,,,,,,5,,,,,,
Ch[12:1],,2h[2:1],,,,,,,,
{12}8qq5[48:19],7h[32:1],6h[32:1],5h[32:1],4>1[12:1],4,
{16}4,,,,
{12}8<5[8:1]*v5[8:1],8,8,8>3[8:1]*v3[8:1],,,8,,,
6h[2:1]/5,,,,,,
{16}4qq1[48:19],,,,5<8[8:1],,7,,5,,,,
{12}2-5[8:1]/7-2[8:1],2/7,2/7,2<7[8:1]/7<4[8:1],,,2/7,,,
1/5h[2:1],,,,,,1pp4[48:19],8h[32:1],7h[32:1],6h[32:1],5<8[12:1],5,5,,,
1-4[8:1]*>4[8:1],1,1,1-6[8:1]*<6[8:1],,,1,,,
{16}3b/7b-4^2-8<5-3>1[8:12],,,,,,,,,,,,,,,,,,,,,,,,,,,,,,
C,,2h[2:1],,,,,,,,
{32}8b>8[16:6],7,6,5,4,3,2,1,8,,,,,,,,
1h[2:1],,,,,,,,,,,,,,,,8b<8[16:6],1,2,3,4,5,6,7,8,,,,,,,,
2h[2:1],,,,,,,,,,,,,,,,1b>1[16:6],8,7,6,5,4,3,2,1,,,,,,,,
3h[2:1],,,,,,,,,,,,,,,,2b<2[16:6],3,4,5,6,7,8,1,2,,,,,,,,
{16}1h[1:1],,,,,,,,,,,,,,,,
7-3[8:1],,,,
{12}5/7,5,5,
{16}5<8[8:1],,4h[16:1],,3/5,,,,
{32}1b,2,3,4h[8:1],
{16},,
{24}7,8,7-2[8:1],
{16}1,5,3-6[8:1],,7x,,3,,8,,
1b-5b[8:1]/7b,,,,
{12}1/3-8[8:1],3,3,
{32}3-6[8:1]/7x,6,5,4,,,,,8,1,2,3x,
{16},,8bh[4:1]/4b,,,,5,5,6,4,
{32}8bw4[8:1],7,6,5,4b,3,2,1,
{16}8b,,,,2b-6[8:1]/6b,,,,
{16}4/2,,7,7,5>2[8:1],,8,,5<8[8:1]/6,,,,
1-5[8:1]/5,,,,1/3,,2,2,4h[8:1],,
{24}2,3,4,8,7,6,1,2,3,
{16}4/8,,E8,,E7,,E6,E5,E4h[8:3],,,,,,Ch[12:1],,
1h[8:1],,,,,,,,,,,,,,,,
2h[8:1],,,,,,,,,,,,,,,,
3h[8:1],,,,3,,4,,6,,5,,3,,4,,
4h[8:1],,5,,3,,3,,6,,6,,2,,2,,
5h[8:1],,,,3,,5,4,5,,5>3[8:1],,6,,,,
6h[8:1],,,,3,,5,4,6,,6,,6,,4,,
7h[8:1],,,,,,,,,,,,,,,,
{48}1b/5bh[1:1],2,3,4,6,7,8,1,2,3,4,6,7,8,1,2,3,4,6,7,8,
1,2,3,4,6,7,8,1,2,3,4,6,7,8,1,2,3,4,6,7,8,1,2,3,4,6,7,8,
{48}
1h[48:5],,,,,,,,,,,
{16}3,,2,1,2,,8,,7,,6,,
1h[8:1]/5,,,,2,,3,4,3,,5,,4,,6,,
2h[8:1]/7,,,,7,,6,,5,,1,,2,4h[16:1],,,
3-5[8:1],,3,,7-5[8:1],,7,,4,,3,,2,,2,,
3h[8:1]/1,,,,8,,7,1,7,,2,,6,,3,,
4h[8:1]/5,,,,6,,6,4,6,,3,,7,,2,,
5h[8:1]/1,,2,,3,,4,,8,,7,,6,,5,,
3-1[8:1],,3,,5-7[8:1],,5,,1,,2,,3,,4,,
5p4b[8:13]/E8,,,6<1[8:1],,,,6,,,2,,,1,,,2<7[8:1]/C,,,,
2,,,,6>3[8:1],,,,6,,,,
8q1b[8:13]/E4,,,7<4[8:1],,,7,,,2,,,3<6[8:1],,,,3/C,,,,7p2[8:1],,,,7,,,,2,,,,
4q5b[8:13]/E8,,,1<6[8:1],,,1,,,4>1[8:1],,,4,,,,7>2[8:1]/C,,,,7,,,,3<6[8:1],,,,3,,,,
1p8b[8:13]/E7,,,2>5[8:1],,,2,,,7<4[8:1],,,7,,,,1>4[8:1]/C,,,,1,,,,6<1[8:1],,,,6,,,,
3>4v5>3[8:28],,,,,,,,,,,,,,,,,,,,,,,,,,,,,,,,,,,,,,,,,,,,,,,,,,,,,,,,,,,,,,,,
7h[2:1],,,,,,,,3>1[8:1],,4,,5,,,,
6h[2:1],,,,,,,,1<7[8:1],,2,,3,,,,
5h[2:1],,,,,,,,4,,3,,2,,1,,6/7,,,,2/3,,,,4/5,,,,1-4[384:1]/8-5[384:1],,,,
E
