&title=界雷
&artist=缶缶 feat. yowanecity
&first=0
&lv_5=14
&des_5=Lucia
&inote_5=
(142){4},,1-4b[8:1],1b/E2f/B2/B3/5b<6<7>8>1>2>3<4b[2:5],
,,,,,,,Ch[1:1],
{8},,,,,,,,1,
1,{16}8/2h[8:1],,,3/7h[8:1],,,{8}3h[8:1],8x,4,
8x,5,8x,4,8x,2,{16}3x,5,4,6,
{8}8x,7,1x-5[8:1],8-6[8:1],1x,8,1,1,
2/8,8/2,{16}3,7,3,7,4,6,4,6,{4}Ch[2:1],
,5w1[8:1],5,{8}3/7-5[8:1],1/5-1[8:1],
7/2,4,3,2/8,{24}3-1[8:1],5,4,6,,,{8}3-7-1[16:3],{16}5,5,
{8}3-6[8:1],4,3,{24}7,8,1,{8}2,1/5,3/7-5[8:1],1/5-1[8:1],
7/2,4,3,2/8,{24}3-1[8:1],5,4,6,,,{8}3-7-5[16:3],{16}6,6,
{8}3,8,1,{24}5/8,4/7,3/6,{8}2/5,2,1x,8xh[16:1]/2xh[16:1],
7x/3x-1[8:1],6/1-5[8:1],3/7,5,{24}6,7,8,1,,,{8}8/2,{16}3,6,
{8}4,8/3>8[8:1],7/4,{24}7,6,5,{8}4,7/1,8,{16}4,4,
{8}6-8[8:1],3/8-4[8:1],6/2,4,{24}3,2,1,8,,,{8}1/7,{16}6,3,
{8}5,6/1,{12}3-6[12:1]/7x-2[12:1],3/7x,3/7x,{4}3/7x,{8}6/4,8,
3/5,1,4/6h[4:1],5,3h[8:1],4,6/5,7,
3/4,2,8-4[8:1],4-8[8:1],,,3,2,
1/7,6,3/7,4,8/5,7,{4}3b/6-2[8:1],
6b/4>1[8:1],4b/5-1[8:1],{8}5/4,2,3h[4:1],1,
6h[4:1],1,4h[8:1],{16}1,3h[8:1],,8,{8}2h[8:1],6h[4:1],8,
3h[4:1],8,5h[8:1],{16}8,6h[8:1],,1,{8}7h[8:1],1-5[8:1],5-1[8:1],
,,7-3[8:1],3-7[8:1],,,2b-6[8:1],3,
2/1b-5[8:1],8,1/2b<7[8:1],3,{4}2,{8}6/5,{16}3,4,
{8}2,{16}8,1,{8}7h[8:1],{16}2,6h[8:1],,3,{8}5h[8:1],4-1[8:1],3,
4/5-8[8:1],6,{16}5/4,4,,,{8}3h[8:1],1h[8:1],2b,{16}8,4,
7,5,6,4,5,3,4,2,4,3,5,4,{8}6-1[8:1],7,
6/5-2[8:1],4,{16}5/6,6,,,{8}7,8,{16}4/1<6[8:1],,,1,
{8}3,2,{16}5/1>4[8:1],,,1,{8}6,7,8-4[8:1],4-1[8:1],
{4}8,{8}3h[8:1],{24}8,7/2,6/1,{8}5/8,2/6,{16}3/5<7[8:1],,,4,
{8}5/4,3,{16}6/4>2[8:1],,,5,{8}5/4,6,1/7-3[8:1],6,
7/1-5[8:1],2,1,{24}6,7,8,{8}1<1[12:5]*<1<5b[8:5],4,{4}4h[2:1],
{8},,,,3,1/5,8b/3b,{16}2,1,
4,5,8,7,{8}3/5<8[8:1],1/6,5/2,3,{16}5,6,2,1,
4,5,8,7,{8}4/3,2/6,1/5<7[8:1],8/4,5/1,3,
8/4>2[8:1],5/1,4/8,6,5/1,2/4,6b/1b,5/8,
3b/6b-2[8:1],4/7,{4}6b,{8}4x/8x,3/7,6/2-4[8:1],4/8,
{32}5/2,6,7,8,{8}1,3/7-1[8:1],5/1,{32}2/7,3,4,5,{8}6,7/3,5/1,
{32}6/3h[8:1],7,8,1,,,,,3/5h[8:1],2,1,8,,,,,2,3,4,5,6,7,8,1,{16}2x/6xh[8:1],,,7x/3xh[8:1],
,,{8}4x/8xh[8:1],{32}4-8[8:1],5,6,7,8,1,2,3,{4}4V28V64b[4:3]*<4[4:3],D5/D4/A4f/E5/E4/B4,
{8},,,,,,2/8-4[8:1],{16}1,1,
{8}6/8-6[8:1],7,8,{24}4,3,2,{8}1,6/2,3/7-5[8:1],1/5-1[8:1],
7/2,4,3,2/8,{24}3,5,4,6,,,{8}7/1-5[8:1],{16}8,8,
{8}3/1-3[8:1],2,1,{24}5,6,7,{8}8,3/7,6/2-4[8:1],4/8,
{32}2/5b,6,7,8,{8}1,3/7-1[8:1],5/1,{32}7/2b,3,4,5,{8}6,{16}3,4,8,7,
5,6,2,1,{8}3-6[8:1],7-2[8:1],3b,7,4x,1/3,
8/2,7/1,{16}8x,6x,4x,1x,3x,5x,8x,6x,{4}4>4[4:1],
{2}4V28V64-8b[16:5],{4}Cf,6-3[8:1],
2-7[8:1],5V74[4:1],4v6[16:3],2-5[8:1],
7-3[8:1],4-1[8:1],4x/6<8[8:1],2V41[4:1],
1x-5-8[4:1],8x-6[8:1],5-3[8:1],5-7[8:1],
5-2[8:1],5/8-6v5[16:5],{32},,,,,,,,A2,E3,B2,C,B6,E7,{16}A6,
{4}5-3[8:1],2-6[8:1],7-5[16:1],1-3[16:1],
8-4[8:1],{32}A1,A2,A3,A4,A5,A6,A7,A8,{2}5xv6-8[4:1],
1xv2-4[4:1],{4}7-4[8:1],{8}7-2[8:1],3,
7-5[8:1],4,7w3[8:1],3,{4}7,{8}6/4,8,
3/5,1,4/6h[4:1],5,3h[8:1],4,6/5,7,
3/4,2,8-4[8:1],4-8[8:1],,,3,1,
6/4,8,3/5,1,6/4,7,{4}6b/3-7[8:1],
3b/5<8[8:1],5b/4-8[8:1],{8}4/5,7,1s5[8:1],2/8,
{4}1,{8}6b-8[8:1]/4b-2[8:1],5,{4}4/6,{16}2,5,{8}1,
4/6,8,2p5[8:1],5>2[8:1],{16},,,,6x,5x,6x,7x,
6x,5x,6x,7x,{8}4,3,2/6,4/5,2b/7-3[8:1],8,
7b/1-4[8:1],8,1b/6-3[16:1],7,6b,2,3/4,{16}6,5,
{8}7,{16}1,8,{8}2h[8:1],{16}7,3h[8:1],,6,{8}4h[8:1],5-8[8:1],6,
5/4-1[8:1],3,{16}4/5,5,,,{8}6h[8:1],8,7b,{16}1,5,
2,4,3,5,4,6,5,7,5,6,4,5,{8}3-8[8:1],2,
3/4-7[8:1],5,{16}4/3,3,,,{8}3,2,{16}6/1>4[8:1],,,1,
{8}7,7,{16}5/1<6[8:1],,,1,{8}4,3,1-5[8:1],5-8[8:1],
{4}1,{8}6h[8:1],{24}1,2/7,3/8,{8}4/1,7/3,{16}6/4>2[8:1],,,5,
{8}4/5,6,{16}3/5<7[8:1],,,4,{8}4/5,3,8/2-6[8:1],3,
2/8-4[8:1],7,8,{24}3,2,1,{8}8V61-5-2-4[8:5]*-6-1-5-2-4[8:5],5,{4}5h[2:1],
{8},,,,7,5,2/8b,{16}3,6,
4,5,2,4,{8}5<8[8:1],1/6,5/2,3,{16}4,7,5,6,
3,7,4,5,{8}3,2/6,1/5<7[8:1],8/4,5/1,3,
8/4>2[8:1],5/1,4/8,6,5/1,2/4,6b/1b,5/8,
3b/6b-2[8:1],4/7,{4}6b,{8}4x/8x,7/3,6/2-4[8:1],4/8,
{32}5/2,6,7,8,{8}1,3/7-1[8:1],5/1,{32}2/7,3,4,5,{8}6,7/3,5/1,
{32}6/3h[8:1],7,8,1,,,,,3/5h[8:1],2,1,8,,,,,2,3,4,5,6,7,8,1,{16}2x/6xh[8:1],,,7x/3xh[8:1],
,,{8}4x/8xh[8:1],{32}4,5,6,7,8,1,2,3,8/4,1,2,3,4,5,6,7,{4}8w4[8:1],
8b,{16}1,7,3,5,2,8,4,6,8,7,5,6,
2,1,3,4,{8}1-5[8:1],7-3[8:1],1,7,8,{32}1/7,2,3,4,
{8}5h[8:1],6,1,{32}8/2,7,6,5,{8}4h[8:1],3,1,{24}5x,6x,7x,
{8}8x-5[8:1],4,{24}3x,2x,1x,8x,7x,6x,{8}5x/8,7/4,6/3,5/2h[16:1],
{32}4,3,2,1,{8}8,3/7,2/6h[16:1],{32}1,8,7,6,{8}5,3/6,5/2h[16:1],
{32}4,3,2,1,{8}8h[8:1],{32}1,2,3,4,5,6,7,8,1,2,3,4,5,6,7,8,{16}1/6xh[16:1],,,2/7xh[16:1],
,,{8}3/8x,{32}1,2,3,4,5,6,7,8,1-4-7-2-5-8b[4:3],2,3,4,5,6,7,8,{4}1,
{8},,,,,,3/7-5[8:1],1/5-1[8:1],
7/2,4,3,2/8,{24}3-1[8:1],5,4,6,,,{8}3-7-1[16:3],{16}5,5,
{8}3-6[8:1],4,3,{24}7,8,1,{8}2,1/5,3/7-5[8:1],1/5-1[8:1],
7/2,4,3,2/8,{24}3-1[8:1],5,4,6,,,{8}3-7-5[16:3],{16}6,6,
{8}3,8,1,{24}5/8,4/7,3/6,{8}2/5,2,1x,8xh[16:1]/2xh[16:1],
7x/3x-1[8:1],6/1-5[8:1],3/7,5,{24}6,7,8,1,,,{8}2/8-4[8:1],{16}1,1,
{8}6/8-6[8:1],7,8,{24}4,3,2,{8}1,7/1,8,{16}4,4,
{8}6-8[8:1],3/8-4[8:1],6/2,4,{24}3,2,1,8,,,{8}1/7,{16}6,3,
{8}5,6/1,{12}3-6[12:1]/7x-2[12:1],3/7x,3/7x,{4}3/7x,8b/4b,
E
