&title=IRIS OUT
&artist=米津玄师
&first=0.05
&des=JANE DOE
&lv_5=13+
&inote_5=(135){4},,,,,,,,,,,,{8}1bx/7bx,
6,8/2,3,{12}7x,{24}4,5x,,5,{8}3h[8:1],4,
5/3,2,4/6,7,{12}2x,{24}5,4x,,4,{8}6h[8:1],5,
7/4,6,2/5,3,{12}8x,{24}4,6x,,6,{8}5h[8:1],7,
8/4,3,2/7,6,4-7[8:1]/5-2[8:1],6/3,{4},{8}1bx/2bx,
3,8/7,6,{12}2,{24}8x,4,,4x,{8}6h[8:1],5,
6/4,5,3/5,4,{12}7,{24}1x,5,,5x,{8}3h[8:1],4,
2/6,4,3/7,5,{12}2,{24}8x,4,,4x,{8}6h[8:1],5,
7/3,1,{16}6x,2x,8x,4x/8xh[16:5],{4},C,
3-8[8:1]/7-1[8:1],7-4[8:1]/3-5[8:1],{8}7/3qq6[8:3],{4},{8}B7/E7/A7,
,8,8,1/7,2,6,4,5,
6/4,3,5/3,6,7/4,3,5/2,5/2,
3,4,5,6,{4}4/7h[4:1],{32}E5,B5,C,B1,{8}E1,
2x/8x,3,5/B3,6,4/7,3,5/B3,6,
4/7,3,5/B3,6,7/1,2,2/B6,3,
4/6,5,2/B6,3,4/6,5,2/B6,3,
{4}4x/8x-4b[8:1],8x/1x,{2}2xs6b[16:3]/6xz2[16:3],
{4}A8f,{12}4,{24}7,5,,5,{4}6h[4:1],{12}2,{24}2,8,,8,
{8}1,2/6,{12}2,{24}4,3h[8:1],{12},{4}1,{12}7,{24}4,5,,5,
{8}3h[8:1],4,{12}2,{24}5,4,,4,{8}6h[8:1],5,{12}7,{24}7,5,,5,
{12}4,{24}4,2,,2,{12}8,{24}8,1h[8:1],{12},{4}E7/B6,4/3h[4:1],
5h[4:1],{64}B8,B7,{32},,,,,,,{4}4h[4:1],{64}B1,B2,{32},,,,,,,{4}6h[4:1],
{64}B8,B7,{32},,,,,,,{4}3h[4:1],{64}B1,B2,{32},,,,,,,{8}4>1b[8:1],
4,6v1b[8:1],6,2,3,4xp8b[8:1]/8xp4b[8:1],2x/6x,
{4}8x/4xpp5[16:5]*qq3[16:5],{2},{8}4/5,2/7,
{4}4b-8b[8:1]/5b-1[8:1],4bx/5bx,{12}3,{24}3,4,,2,{16},8x,{8}1x,
{4}1xv4b[8:1]/5xv8[8:1],1bx/5bx,{12}6,{24}6,5,,8,{16},1x,{8}1x/7x,
3-8-2[4:1],7,6-4[8:1],4-7[8:1],6,3-1[8:1],1-4[8:1],3,
7-3b[8:1],8,5-2[8:1]*-8[8:1],5,{4},Cf,
7b-4[8:1]/2b-6b[8:1],2bx/7bx,{8}1,{16}5,4h[16:3],,8x,{8}8x,
3b-1b[32:3],5b-7b[32:3],{4}4b-8b[8:1],Cf,{8}2/6,3,
5/E2,7,4/E8,2,5/B2,6,4/B7,3,
{1}6h[4:3]/2q5<4b[12:7],
{4}1bxh[8:1]/B6/B5f,{8}7,5,{4}8h[8:1]/B3/B4,{8}2,4,
{4}1h[8:1]/B5/B6,{8}7,5,{2}B3/B4/8-4[8:1],
{4}1h[8:1]/B6/E7,{8}7,4,{4}8h[8:1]/E3/B3,{8}2,5,
{4}1h[8:1]/B6/E7,{8}7,4,{2}E3/B3/8z4[16:3],
{12},{24}3x,4x,5x,6x,{16}8,3,7,2,5,4,6,5,7,4,8,2,
7,3,6,4,{24}7x,6x,5x,2x,3x,4x,{32}8x,{16},{32}E3,A3,{16},{32}E6,A5,{16},{32}B4,{8}A4,
{16}6xh[16:1],3xh[16:1],5xh[16:1],4xh[16:1],6xh[16:1],3xh[16:1],7xh[16:1],1xh[16:1],8,2,7,3,6,4,5,2,
7,8,6,1,4,3,5,2,{2}Ch[4:1],
2xqq6<3[4:3],{16}D4,{8},{16}D5,{8},D6,
{2}7xpp3>6b[4:3],{16}D6,{8},{16}D5,{8},D4,
{2}2xq5<4[4:3],{16}E1,{8},{16}C,{8},E5,
{1}6xw2b[2:1],
{16}3bh[16:3],{8},{16}5h[16:3],{8},4,{16}4bh[16:3],{8},{16}6h[16:3],{8},5,
{16}5bh[16:3],{8},{16}7h[16:3],{8},6,5/7,4,5/3-5[32:3],2,
6,6,6/2-6[8:1],1,7,7,7/1w5[32:3],8,
{4},,,7h[4:1]/4-1[32:3],
4b,{12}8,{24}1,7,,7,{4}3h[4:1],{12}4,{24}4,2,,2,
{8}5,6/4,{12}7,{24}4,5h[8:1],{12},{4}1,{12}6,{24}6,5,,3,
{8}4h[8:1],1,{12}3,{24}3,4,,6,{8}5h[8:1],8,{12}4,{24}4,5,,5,
{12}3,{24}3,4,,4,{12}1,{24}1,5h[8:1],{12},{4}B1/E1,{8}5/6h[4:1],4,
{4}4h[4:1],{64}B1,B2,{32},,,{8}4,{4}3/5h[4:1],{64}B8,B7,{32},,,{8}5,
{4}6/4h[4:1],{64}B1,B2,{32},,,{8}4,{4}3/5h[4:1],{64}B8,B7,{32},,,,,,,{8}6v1b[8:1],
6,5>4-2b[8:1],5,8,7,6x/1x,4x/3x,
1x/A5,2x/A6,3x/A7,4x/A8,{2}A1/5xpp6[16:3]*qq4[16:3],
{4},{8}3x/4x,E2,5x/6x,E8,1x/5x,E3,
{4}8x/4x,{8}6x/5x,E8,4x/3x,E2,6x/5x,E8,
{4}1x/5x,{8}3x/4x,E2,5x/6x,E8,3x/4x,E2,
4x/A8,3x/A7,2x/A6,1x/A5,{2}A4/8xqq7[16:3]*pp1[16:3],
{4},{24}2x,4x,3x,5x,4x,6x,4x,3x,2x,7x,6x,5x,4x,3x,2x,7x,6x,5x,
2x,4x,3x,5x,4x,5x,3x,4x,2x,5x,1x,6x,2x,3x,4x,5x,6x,7x,2x,3x,4x,5x,6x,7x,
{32}2x,3x,4x,5x,8x,7x,6x,5x,1x,2x,3x,4x,5x,6x,7x,8x,{8}1x/B5/A5,1x/E4/A4,1x/E7/E8,1x/E3/E4,
{4}C/1xqq8b[16:5]*pp2b[16:5],{2},{8}8/1,6/3,
{4}8b-4b[8:1]/1b-6[8:1],8bx/1bx,{12}2,{24}6,4,,8,{16},3x,{8}4x,
{4}2x-5b[8:1]/4x-8[8:1],2bx/4bx,{12}7,{24}3,5,,1,{16},8x,{8}1x/7x,
3-7-1[4:1],8,6-4[8:1],4-8[8:1],6,3-1[8:1],1-5[8:1],3,
6-2b[8:1],7,4-1[8:1]*-7[8:1],4,{4},Cf,
8b-4[8:1]/2b-6b[8:1],2bx/8bx,{8}1,{16}5,3h[16:3],,1x,{8}1x,
2b-7b[32:3],8b-3b[32:3],{4}1b-5b[8:1],Cf,{8}6/2,4,
5/E2,7,4/E8,2,5/B2,6,4/B7,3,
{1}6h[4:3]/2qq5<4b[12:7],
{8}1bx/D6f/B5/B6,1,7,5,8/D4/B3/B4,8,2,4,
1/B5/D6/B6,1,7,5,D4/B3/B4/8-4[8:1],8,{4},{8}1/A5/E6/E5,
1,7,5,8/E4/E5/A4/B4,7,2,4,
1/A5/A6/D6/B6/E6/B5,3,7,5,D4/A4/A3/B3/B4/E5/E4f/8bxs4b[16:3],1bx/6bx,,,,{16}1,
6,2,6,4,5,3,4,2,5,8,7,1,6,
{24}2x,3,4,7x,6,5,1x,2,3,8x,7,6,3x,4,2,6x,5,7,3x,4,1,8xh[8:1],{12},{32}2bx,
3x,4x,5x,7bx,6x,5x,4x,1bx,2x,3x,4x,8bx,7x,6x,5x,1bx,2x,3x,4x,1bx,2x,3x,4x,8bx,7x,6x,5x,8bx,7x,6x,5x,
1bx,2bx,3bx,4bx,5x,6x,7x,8x,2bx,3bx,4bx,5bx,6bx,7bx,8bx,1bx,{2}Ch[4:1],
E
