&title=なつのみぞれ
&artist=ナカノは4番 feat.桃音モモ
&first=0.02
&des=…
&lv_5=13
&inote_5=(140){1},
{1},
{1}4h[4:3]/6b<3[8:7],{4}5-8[2:1],,4,,6>1[8:7]/8h[4:3],,,,7-3[2:1],,8,,
{4}6h[4:1]/5,,4-2[8:1],,5-1[4:1],,3,4,5<5[4:3],,,,7h[4:3],6,6,,
{8}5/3V16[8:3],,5,,5,,4,5,{4}4-1[2:1],6,5,4,3<8[8:7]/1,8,1,3,2z6[2:1],,1,5,
{4}3h[4:1]/4,,5-7[8:1],4,4-8[4:1],5,6,5,4qq6[4:3],8,7,6<5[8:5]*>7[8:5],
{4},,,6w2[2:3],,,,,,,,{4}1pp1[4:1],
{8}1/4b,,5,4,5/7-5[8:1],,2qq3[4:1],,2/4,,6,7,4/8-6[8:1]*-2[8:1],,8-4[8:1],,
{8}2-6[8:1],,2,5,5h[4:1],,7>1[8:1],,7/4<7[8:1],,4/2-6[8:1],2,8b,,7pp6[4:1],,
{8}7/5,,4,5,4/2-4[8:1],,8qq1[4:1],,8/5,,3,6/2,5/1,,2-5[8:1]/4-8[8:1],1h,
{8}2/4,,7-4[8:1]/5-1[8:1],8,7/5,,5v4[8:1],,4<7[8:1]/5>2[8:1],,,,8-5[8:1]/4-1[8:1],,8b/4b,,
{8}1/5h[8:1],2,3/6h[8:1],4-8[8:1],7h[8:1],4-2[8:1],6h[8:1],4,5h[8:1],2,3<6[8:1]/6<1[8:1],,3/6-2[8:1],,8,7h,
{8}2/6h[8:1],3,4/7h[8:1],5>2[8:1],8h[8:1],5-1[8:1],7h[8:1],5,6h[8:1],1,2<7[8:1],{16}7pp3[16:4],7,{8}2,5,4b,,
{8}5b/2h[8:1],6,7/3h[8:1],8-5[8:1],4h[8:1],8-3[8:1],3h[8:1],8,4h[8:1],7,6>3[8:1]/3>8[8:1],,6/3-7[8:1],,1,2h,
{8}3h[8:3],,2-7[8:1],2,5>2[8:1],5,8-4[8:1],8,2,3,4,5,6>3[8:1]*<1[8:1],,6b,,
{8}7bv4[8:1]/4b-1[8:1],,7/4,,2pp5[4:1],,6,7,8-4[8:1],,8/5-1[8:1],,5pp5[16:3]/6,,1pp1[16:3],,
{4},4-8[8:1],{16}1p5[8:1]/4-7[8:1],2,3,4,1,,,,8<5[8:1]/4-8[8:1],1,2,3,8pp3[16:5]/4,,,,5-8[8:1],,,,5b,,,,
{8}1<7[8:1]/3,1,4>1[8:1],4,4-7[8:1]/8-3[8:1],,4/8,,8<6[8:1],8,3>8[8:1],3,3-6[8:1]/7-2[8:1],,,,
{8}3<8[4:1],,8>5[4:1],,5<2[4:1],,2>5[20:3],,7h[8:7],,6,,6,,2,3,
{8}8bp4[8:1]/4bp8[8:1],,4/8,,1/5-1[8:1],,3,4,5qq5[16:3],,1qq1[16:3],,,,3v5[8:1],,
{4}3/6q2[8:1],1<7[8:1]/6,5-1[8:1],3h[4:3],8h[8:1],4h[8:1],8V64[4:1],8/4b,
{8}8>2[8:1],1,5<8[8:1],6,5-2[8:1]/1-6[8:1],,5/1,,1>3[8:1],2,6<1[8:1],7,6-3[8:1]/2-7[8:1],,,,
{4}4>2[8:1]/5p1[8:1],4/5,5<7[8:1]/4q8[8:1],4/5,{8}1bp8[4:1],,7,,6,{16}5h[8:2],6,7,8,1,2,
{16}3b-8[8:1],,,,4/3,,6,6h[16:5],,7-4[8:1],7,,,,8,,8,5p1[8:1],,1p5[8:1],,,,,,,,,7bv5[8:1]/8>8[16:7],,,,
{16}8,,,,,,,,5,6,7,8bz4[4:1],,,4,8,4>1[8:1]*<7[8:1],,,,,,,,8p4[8:1]/4p8[8:1],,,,8b/4b,,,,
{8}2q6[8:1],6>3[32:3],7h[8:1],,7p3[8:1],3<6[32:3],2h[8:1],,1>3[8:1],5<7[8:1],1-4[8:1],5q1[8:1],1p8[4:1],,,4b,
{8}3<6[8:1],,3q7[8:1],,3v8[8:1],,1>8[16:5],,1b,,1,,1w5[8:1],,1b,,
{16}2b,,,3,5h[8:1],,3,,2-4[8:1]/5,,4-8[8:1],,2,,5,,6,,,7,1h[8:1],,7,,6-8[8:1]/1,,8-4[8:1],,6,,5,,
{8}6V83[4:1],6,6,5,6-8[8:1],8-5[8:1],6,1,2,6,3,5,4>1[8:1]*<7[8:1],,4b,,
{16}7b,,,6,4h[4:1],,6,,7-5[8:1],,5-1[8:1],,7,,4,,3,,,2,8h[4:1],,2,,3-1[8:1],,1-5[8:1],,3,,4,,
{8}3V16[4:1],3,3,4,3-1[8:1],1-4[8:1],3,8,7,3,8,2,1pp1[4:1],,8b<2[4:3],,
{4},,,1qq2[2:1],,,,{512}8-4[8:3],6V82[4:3],
{8},,,,,,,4pp6[8:5],4qq2[4:2],,,,,,,,5p2[2:3]/6pp1[2:3],,
{4},,,,,,,2>4[16:3],
{4},1q5[4:1],,8>6[4:3],6,7,8,1b,
{1}3h[1:2]/7h[1:2],,
{8},,,,,,,,,,,,6,5,4,3,
{8}1b>4[32:3]/5b<8[32:3],,5qq4[32:5]/1,,1b<4[4:1],,1,3,2-4[32:3],,1-5[8:1]/2,,8-6[32:3]/1,,4-1[8:1]*-7[8:1],,
{4}4,4-8[8:1]/8,{16}7q3[8:1]/4-1[8:1],6,5,4,,,,,1>4[8:1]/5-1[8:1],8,7,6,1qq6[16:5]/5,,,,4-1[8:1],,,,4b,,,,
{8}8>2[8:1]/5,1,5<8[8:1],6,5-2[8:1]/1-6[8:1],,5/1,,1>3[8:1],2,6<1[8:1],7,6-3[8:1]/2-7[8:1],,,,
{4}1q7[8:1]/2>6[8:1],,8-4[8:1],8/4,1bpp5[2:1],5,8-4[8:1],8,
{4}7b/3b,2>5[8:1],7>2[8:1]/2,4<7[8:1]/7,1>4[8:1]/4,6<1[8:1]/1,4w8[8:1]/6,,
{4}5pp4[4:1],4>6[4:1]/5,1-5[32:3],1,4qq5[4:1],5<3[4:1]/4,8-4[32:3],8,
{4}1b/5b,7<4[8:1]*<4[8:1],2<7[8:1]*<7[8:1]/7,5>2[8:1]*>2[8:1]/2,8<5[8:1]*<5[8:1]/5,3>8[8:1]*>8[8:1]/8,5w1[8:1]/3,,
{4}7pp3[2:1],4,3,2,1>7[8:3]/4h[4:3],,,8b,
{16}2/5,,,3,5,,3,,2-8[8:1],,3,,5,,4,,2/5,,,3,5,,3,,2-4[8:1],,3,,5,,6h,,
{8}7>1[8:1]/3,4,5,6,7>1[8:1]/3,4,5,6,5<8[4:1]/2,4,3,2,1pp1[2:1],,8b,,
{8}7h[4:3],,,8,8,,3,,6h[4:3],,,5,5,,3,,
{8}3h[4:3]/4,,,2,2,,1-5[4:1],,2V48[4:3],,,,8b,,,,E
