&title=Hemisphere
&artist=ARForest
&first=-0.02
&des=Jack2310
&lv_5=14.3
&des_5=Jack2310
&inote_5=
(193){4},{8},,1/8<5[8:25],,,1,
,2,,3,,2,,3,
,1,,2,,,{4}1,
{8},3,,4,,2,,3,
,4,3,2,8/1>4[8:25],,,7,
,6,,5,,6,,5,
,7,,8,,,{4}7,
{8},6,,6,,7,,8,
,8,7,6,4/5b<4[8:57],,,6,
,3,,6,,2,,5,
,1,,6,,,{4}6,
{8},4,,6,,4,,5,
,1,2,8,7,,,7,
,6,,5,,6,,5,
,1,,2,,,{4}5,
{8},6,,7,,5,,6,
,4,3,6/2,,,,,,E6,
E5,E4,B2,B8,{16}B7,B6,{8}E6,
{2}B4,{8}7b/2b,,,3h[8:1],
,,{4}5h[8:1],{8},2h[8:1],,,{4}3h[8:1],
4h[8:1],{8}5h[8:1],,,3h[8:1],
,,{4}4h[2:1],{8},,,,1xh[2:1],
,,8,8h[8:1],,,7h[8:1],
,,{4}6h[8:1],{8},5h[8:1],,,{4}4h[8:1],
5h[8:1],{8}4h[8:1],,,6h[8:1],
,,{4}7h[8:3],,,{2}4xh[8:3],
{8}6b/3h[8:1],,,2h[8:1],
,,{4}3h[8:1],{8},1h[8:1],,,{4}6h[8:1],
5h[8:1],{8}4h[8:1],,,3h[8:1],
,,{4}5h[2:1],{8},,,,7xh[2:1],
,,3,3h[8:1],,,2h[8:1],
,,{4}4h[8:1],{8},1h[8:1],,,{4}6h[8:1],
3h[8:1],{8}4/5h[8:1],,,3/6h[8:1],
,,{4}7b/2b,{16}1,2x,3x,4x,7,6x,5x,4x,
2,3x,{8}4x,{16}6,3,6,3,{4}4x/7bV53[8:1],{8}7/2,1,
2,4/1h[8:1],{4}5,{8}2/8h[8:1],1,2/8V64[8:1],7/3,
8,3,2,5h[8:1],{16},,2/6h[8:1],3x,{8}4x,{16}7/3h[8:1],6x,
{8}5x,{16}2/6h[8:1],3x,{8}4x,{16}7/3h[8:1],6x,{8}5x,{16}2/7-5[8:1],3x,{8}4x/8,7,
,6/4,7/3,6,{16}4x/6h[8:1],3x,{8}2x,{16}7x,6x,{8}5x/2h[8:1],
{16}6x,5x,{8}4x/1h[8:1],{16}7x,6x,{8}5x/2h[8:1],{16}7x,6x,{8}5x,{16}3x/6,2x,{8}1x,
{16}4x,3x,{8}2x/7,6/1,5h[8:1],,4/6-3[4:1],,3-8[4:1],
,8-5[4:1],{4}1,{8}2,2,3,{16}4,5,
{8}3,{16}6,7,5,4,3,2,{4}1/5bh[8:1],{8}1,2/6-4[8:1],
,2/6-8[8:1],1,6,2,7/1,6/2,7/3,
6,5/2,6/1,5,{4}2/7h[8:1],{8}2,3/7-5[8:1],
,2/7-1[8:1],3,7,3,4,3,2/8h[8:1],
,7/2,6,5/3,{16}7/4h[8:1],6x,{8}5x,{16}7,6x,{8}5x/3-1[8:1],
{16}7,6x,{8}5x/3-5[8:1],{16}8,7x,{8}3/6x,,6/3,7/4,3/8,
7/2,1,7,1/6,{16}7/2h[8:1],6x,{8}5x,{16}7,6x,{8}5x/1h[4:1],
{16}7,6x,{8}5x,{4}6/3h[8:1],{8}6,5/1,{16},,3/4,2x,
{8}1x,{16}7x,6x,{8}5x/2,3b/6bx,4,{16}5,4,{8}5,6,
5,3,,1,{16},,5,4x,{8}3x,6,
2,5,3,1,{16}6,5x,{8}4x,{16}1,2x,{8}3x,
5,6,,2,{16},,2,3x,{8}4x,6,
8,{32}7,6x,5x,4x,{8}3x,1,2,{16}3,4x,{8}5x,6,
7,6,,8,{16},,6,5x,{8}4x,2,
5,3,4,{16}5,6x,{8}7x,{16}4,3x,{8}2x,6,
5,4,,7,{16},,5,4x,{8}3x,6,
{32}2,3x,4x,5x,{8}6x,8,7,5/6,{16}3,2x,{8}1x,4,
5/C,6,,1,{16},,4,5x,{8}6x,2,
3/C,4,5,{16}4,3x,{8}2x,{16}5,6x,{8}7x,2,
3/C,4,,1,{16},,4,3x,{8}2x,7,
8/C,{32}7x,6x,5x,4x,{8}3x,1,2,3,4,3,
C,2,,1,{16},,4,5x,{8}6x,2,
3/C,2,1,{16}2,3x,{8}4x,{16}5,6x,{8}7x,3,
4/C,{16}3,2x,{8}1x,7,{16},,4x,5x,3x,4x,2x,6x,
4x,3x,5x,2x,4x,6x,3x,5x,{2}4bx,
,C,
,C,
{4},E3,E2,E1,
E8,E7,,,,,{2}C,
{4},,,,,5,
6/4,5/3,
3/4,{16}5,4,5,4,{4}3b/6b,{16}4/2V86[8:1],5,{8}6,
2,4,,5/3,,5/4,{16}3/6V42[8:1],2,{8}1,
6,1,,6,{16}5,4x,5,4,5,3x,5,3,
5,2x,5,2,5,1x,5,1,5,8x,5,8,5,7x,5,7,
5,6x,5,6,5,4x,5,4,{8}6x/3x,4,7,{16}5/6,4,
3,2,1,8,7,6,{8}5x/4x,3,2,5,{16}3/4,5,
6,7,8,1,{8}2x/4x,5,3/6,7,{16}6,3,5,4,
6,3,5,4,6,3,5,4,8,7,6,5,1,2,3,4,
7,6,5,4,2,3,4,5,6bx,3x,5,4,5,3,6,2,
7,1,8,1,7,2,6,3,5,4,6,3,7,2,8,1,
7,2,6,3,5,6x,7x,8x,1x/5,2x,3x,4x,5x/1,6x,7x,8x,
1x/5,2x,3x,4x,5x/1,6x,7x,8x,1x/5,2x,3x,4x,5x/1,6x,7x,8x,
1x/5,2x,3x,4x,{8}5x/1b,2x,4/3,{16}5,6x,{8}7x-2[8:1],2-5[8:1],
7/5-8[8:1],4,3,2b,1/5,{16}4x,5x,6x/2-8[8:1],7x,{8}8-6[8:1],
2/6-2[8:1],5,4,5,4,{16}2/5,6,{8}7V53[4:1],{16}1,2,
{8}7/3V58[4:1],2,1,2b,,3/5,2,{16}6,7,
{8}8/1w5[16:1],4/5w1[16:1],,,{2}7bx/3bx,
E
