&title=Party Vinyl
&artist=モリモリあつし
&first=0.035
&des_6=おめが
&lv_6=14
&des=おめが
&inote_6=(132){2},
{8}1x>3[8:1],1x>4[8:1],1x>5[8:1],1x>6[8:1],1x>7[4:1],1x,1x,,8x<6[8:1],8x<5[8:1],8x<4[8:1],8x<3[8:1],8x<2[4:1],8x,8x,,1x>3[8:1],1x>4[8:1],1x>5[8:1],1x>6[8:1],1x>7[4:1],1x,1x,,8x<6[8:1],8x<5[8:1],8x,8x,
{24}3,4,3<6[8:1],
{16}4,2,1,3,8b,,
{8}7-4<5[8:1],3/5-1[8:1],7,3,2-5>4[8:1],6/4-8[8:1],2,7,6-1<8[8:1],2/8-4[8:1],6,2,3-8>1[8:1],7/1-5[8:1],3,
{32}6>4[16:1],,,,6x,7,8,,2x>4[16:1]/6x,,,,2x,1,8,,2x/6x>4[16:1],,,,6x,7,8,,2x>4[16:1]/6x,,,,2x,1,8,,2x/6x,,,,
{24}7,5,7,
{16}5,6,
{24}2,4,2,
{16}4,3,
{24}8-5[16:1],4-1[16:1],8>3[16:1],
{16}4<7[16:1],8V26-4[4:1],
{2},
{16}1b<6[8:1],,6,,1>4[8:1]/5,,4,,1<6[8:1]/5,,6,6,1>4[8:1],,5,5,1<6[8:1],,6,,1>4[8:1]/5,,4,,1,,5,5,4x/6,,4x/6,,8>3[8:1],,3,,8<5[8:1]/4,,5,,8>3[8:1]/4,,3,3,8<5[8:1],4,,5,8>3[8:1],4,,3,8<5[8:1]/3,,4,,8pp2[8:1]*qq6[8:1],,4,4,8b,,,,
{8}1<6[8:1],8h[8:1],1>4[8:1],2h[8:1],1<6[8:1],8h[8:1],1>4[8:1],2h[8:1],1<6[8:1],8h[8:1],1>4[8:1],2h[8:1],1,
{16}5,5,4x/6,,4x/6,,
{8}8>3[8:1],1h[8:1],8<5[8:1],7h[8:1],8>3[8:1],1h[8:1],8<5[8:1],7h[8:1],8>3[8:1],1h[8:1],8-6-2-4-8[16:4],7h[8:1],8,,1b,,7-4[8:1],1,3-6[8:1],1,7-4[8:1],1,3-6[8:1],1,7-4[8:1],1,3-6[8:1],1,7,
{16}8,7,
{8}1/6x,1/6x,2-5[8:1],8,6-3[8:1],8,2-5[8:1],8,6-3[8:1],8,2-5[8:1],8,6-3[8:1],8,2pp4[8:1]*p4[8:1],
{16}8,8,
{8}2b,,8<5[8:1],2,4q1[8:1],3,2>5[8:1],8x,6p1[8:1],7,8<5[8:1],2x,4q1[8:1],3,2,
{16}4,4,3/5,,3/5,,2/6,,8,8,1/7,,1/7,,2/6,,4,4,
{8}3/5,3/5,2-5[8:1]/6,4/8-4[8:1],2,8,
{48}1b,1b,,,,,
{8}5x/7,3h[8:3],
{16},1,,5,5,,4/6,,3,4,2/5,,6,5,4/7h[8:3],,,1,,5,5,,4/8,,6,4,7/3,,3,5,2/6h[8:3],,,8,,4,4,,5/3,,6,5,7/4,,3,4,5/2h[8:3],,,8,,4,4,,5/1,,
{24}4,5,4,
{4}2b/7b,
{64}1b/8b,2x/7x,3x/6x,4x/5x,
{16},,,3,5,5,,4/6,B6/B7,3,4,2/5,,6,5,4/7,B6/B7,,1,B6/B7,5,5,,4/8,B2/B3,6,4,7/3,,3,5,2/6,,,8,B2/B3,4,4,,5/3,,6,5,Ch[12:1]/B1/B8,,,,5/2h[8:3],,,8,,4,4,,5-8-4[8:1]/1,,
{24}4-1-5[8:1],5,4,
{1},,
{8},,2h[8:1],4h[8:1],6h[8:1],8h[8:1],5h[8:1],3h[8:1],1h[8:1],7h[8:1],5>3[8:1],,6>2[8:1],,7,
{24}8,1,8,
{4}7b/2b,7h[4:3],E1/B1,E3/B3,E5/B5,2h[4:3],E1/B8,E7/B6,E5/B4,
{8}7h[8:1],5h[8:1],3h[8:1],1h[8:1],4h[8:1],6h[8:1],8h[8:1],2h[8:1],4<6[8:1],,3<7[8:1],,2>8[8:1],,
{4}1b,
{16}2-5[12:1],,6/4-8[8:1],,2,,6,6,7-4[12:1],,3/5-1[8:1],,7,,2,2,3-8[12:1],,7/1-5[8:1],,3,,7,7,6-1[12:1],,2/8-4[8:1],,6,,
{32}3<5[16:1],,,,3x,2,1,,7x<5[16:1]/3x,,,,7x/3x,8,1,,7x/3x<5[16:1],,,,3x/7x,2,1,,7x<5[16:1]/3x,,,,7x/3x,8,1,,7x/3x,,,,
{24}2,4,2,
{16}4,3,
{24}7,5,7,
{16}5,6,
{24}1-4[16:1],5-8[16:1],1<6[16:1],
{16}5>2[16:1],1V73-5[4:1],
{2},
{16}1>4[8:1]/8,,2,,1/8<5[8:1],,7,,1>4[8:1]/8,,2,2,1/8<5[8:1],,7,7,1>4[8:1]/8,,2,,1/8<5[8:1],,7,,1/8,,3,3,2/4,,2/4,,5<8[8:1],,6,,5/4>1[8:1],,3,,5<8[8:1]/4,,6,6,5/4>1[8:1],3,,3,5<8[8:1]/4,6,,6,5/4>1[8:1],,3,,5qq3[8:1]*pp7[8:1]/4,,7,7,5b,,,,8/1<5[8:1],,7,,8>4[8:1]/1,,2,,8/1<5[8:1],,7,7,8>4[8:1]/1,,2,2,8/1<5[8:1],,7,,8>4[8:1]/1,,2,,8/1,,6,6,7/5,,7/5,,4<8[8:1],,6,,5>1[8:1]/4,,3,,5/4<8[8:1],,6,6,5>1[8:1]/4,3,,3,5/4<8[8:1],,6,,5-7-3-1-5[4:1]/4,3,,3,5/4,,,,4b,,,,7-3[8:1],,8,,1-5[8:1],,2,,3x-7[8:1],,4,4,5x-1[8:1],,6,6,7x-3[8:1],,8,,1x-5[8:1],,2,,3x,,4,4,3/5x,,3/5x,,2-6[8:1],,1,,8-4[8:1],,7,,6x-2[8:1],,5,5,4x-8[8:1],3,,3,2x-6[8:1],1,,1,8x-4[8:1],,7,,6x,,5,5,2b/8b,,,,
{8}1>4[8:1],7,5p8[8:1],6,7,
{16}1x,1x,3/7,,
{32}5,4,5,4,
{16}6,5,7,7,
{24}3,4,3,
{16}4,2,
{24}8,1,8,
{16}1,7,
{12}4/6,4/6,4/6,3/1,3/1,3/1,6/8,6/8,6/8,3/5,3/5,3/5,
{16}2/6>8[8:3],,7,,1,,3,,5,,7,,
{48}1b/7b,2/6,3/5,4,
E
