&title=Tuk Tuk Boshi
&artist=Shaman Cure-All
&first=0.05
&des=D.J. Trump
&lv_5=14
&inote_5=(148)
{1},
{16}1,,1,,1,,8,8,,1,1,2,2,3,3,4,
{16}4,,4,4,,4,4,4,3h[8:1],,5h[8:1],,7b,,,,
{16}4,4,6,6,4,4,5,5,4,4,6,6,4,4,5,5,
{16}3,3,1,1,3,3,7,7,3,3,1,1,3,3,7,7,
{16}2,2,4,4,2,2,8,8,2,2,4,4,2,2,8,8,
{16}1,1,6,6,1,1,4,4,1,1,6,6,16,,,,
{16}6,6,4,4,6,6,5,5,6,6,4,4,6,6,5,5,
{16}7,7,4,4,7,7,2,2,7,7,4,4,7,7,2,2,
{16}8,8,3,3,8,8,1,1,8,8,3,3,8,8,1,1,
{16}7,7,5,5,7,7,8,8,7,7,5,5,{32}7,6,5,4,,,,,
{16}3,3,5,5,1,1,7,7,3,3,5,5,1,1,7,7,
{16}2,2,8,8,4,4,6,6,2,2,8,8,4,4,6,6,
{16}3,3,1,1,7,7,5,5,3,3,1,1,7,7,5,5,
{16}4,4,2,2,8,8,6,6,4,4,8,8,48,,,,
{16}2,3,4,5,6,7,8,1,2,3,4,5,6,7,8,1,
{16}3,4,5,6,7,8,1,2,3,4,5,6,7,8,1,2,
{24}4b,5,6,7,8,1,2b,3,4,5,6,7,1b,2,3,4,5,6,7b,8,1,2,3,4,
{24}6b,7,8,1,2,3,4b,5,6,7,8,1,{32}26,7,8,1,2,3,4,5,{4}2b/6b,
{16}1,8,4,5,3,6,1,8,4,5,3,6,1,8,5,6,
{16}2,1,5,6,4,7,2,1,5,6,4,7,2h,1h,3,4,
{16}8,7,3,4,2,5,8,7,3,4,2,5,8,7,4,5,
{16}1,8,4,5,3,6,1,8,4,5,3,6,1h,8h,2h,7h,
{16}4,5,1,8,2,7,4,5,1,8,2,7,4,5,8,7,
{16}3,4,8,7,1,6,3,4,8,7,1,6,3h,4h,2,1,
{16}5,6,2,1,3,8,5,6,2,1,3,8,5,6,4,7,
{16}2,1,3,8,5,6,4,7,2h[4:1],,,,{32}7b,6,5,4,,,,,
{16}3,6,1,8,4,5,3,6,1,8,4,5,3,6,1,8,
{16}4,7,2,1,5,6,4,7,2,1,5,6,4h,7h,1,8,
{16}2,5,8,7,3,4,2,5,8,7,3,4,2,5,1,8,
{16}3,6,1,8,4,5,3,6,1,8,4,5,3h,6h,1h,8h,
{16}4,5,1,8,3,6,4,5,1,8,3,6,4,5,2,1,
{16}5,6,2,1,4,7,5,6,2,1,4,7,5h,6h,8,7,
{16}3,4,8,7,2,5,3,4,8,7,2,5,3,4,2,5,
{16}8,7,1,6,8,7,1,6,{32}1,2,3,4,5,6,7,8,{4}1b/6b,
{16}6h[8:1]/4,,,,6h[8:1]/3,,,,6h[8:1]/2,,,,6h[8:1]/1,,3,,
{16}6h[8:1],,2,,6h[8:1],,1,,6h[8:1],,2,,6h[8:1],,3,,
{16}6h[8:1]/4,,,,6h[8:1]/3,,,,6h[8:1]/2,,,,6h[8:1]/1,,3,,
{16}6h[8:1],,2,,6h[8:1],,1,,6h[8:1],,1,,6h[8:1],,2,,
{16}5h[8:1]/3,,,,5h[8:1]/2,,,,5h[8:1]/1,,,,5h[8:1]/2,,3,,
{16}5h[8:1],4,,,5h[8:1]/3,,2,,5h[8:1]/1,,1>1[8:11],,1,8,,,
{1},
{2}4h[4:1],{32}8,7,6,5,4,3,2,1,{4}8b,
{16}3h[8:1]/5,,,,3h[8:1]/6,,,,3h[8:1]/7,,,,3h[8:1]/8,,6,,
{16}3h[8:1],,7,,3h[8:1],,8,,3h[8:1],,7,,3h[8:1],,6,,
{16}3h[8:1]/5,,,,3h[8:1]/6,,,,3h[8:1]/7,,,,3h[8:1]/8,,6,,
{16}3h[8:1],,7,,3h[8:1],,8,,3h[8:1],,7,,3h[8:1],,6,,
{16}4h[8:1]/5,,,,4h[8:1]/6,,,,4h[8:1]/7,,,,4h[8:1]/8,,7,,
{16}4h[8:1],6,,,4h[8:1]/7,,7,,4h[8:1]/8,,8<8[8:11],,8,1,,,
{1},
{16}5h[4:1],,,,,,,,{32}1,2,3,4,5,6,7,8,{4}1b/5b,
{16}1,8,2,7,1b,,6,5,7,4,6b,,4,4,3,3,
{16}2,1,3,8,2b,,5,4,6,3,5b,,6,6,7,7,
{16}8,7,1,6,8b,,6,5,7,4,6b,,5,5,4,4,
{16}2,1,3,8,2b,,3,,{32}5,6,7,8,1b,2,3,4,{4}5,
{16}3,4,2,5,3b,,1,2,8,3,1b,,8,8,7,7,
{16}5,6,4,7,5b,,8,1,7,2,8b,,2,2,3,3,
{16}4,5,3,6,4b,,7,8,6,1,7b,,8,8,1,1,
{16}2,1,3,8,2b,,1,,{32}8,7,6,5,4b,3,2,1,{4}8,
{16}1,8,3,6,1b,,6,5,8,3,6b,,5,5,4,4,
{16}3,4,1,6,3b,,2,1,4,7,2b,,1,1,8,8,
{16}7,8,5,2,7b,,4,5,2,7,4b,,2,2,1,1,
{16}8,1,6,3,8b,,1,,{32}2,3,4,5,6b,7,8,1,{4}2,
{16}3,4,1,6,3b,,6,5,8,3,6b,,7,7,8,8,
{16}1,8,3,6,1b,,4,5,2,7,4b,,5,5,6,6,
{24}7b,8,1,2,3,4,5,6,7,8,1,2,4b,5,6,7,8,1,2,3,4,5,6,7,
{24}1b,2,3,4,5,6,7,8,1,2,3,4,{32}6b,7,8,1,2,3,4,5,{4}6,
{24}8b,7,6,5,4,3,2,1,8,2b,3,4,{16}5,7,7,,17,,1,1,
{16}8,1,3,2,8,1,3,2,8,1,{24}7b,6,5,4,3,2,1,8,7,
{24}3b,4,5,6,7,8,1,2,3,8b,7,6,{16}5,3,3,,35,,5,5,
{16}4,5,2,1,4,5,2,1,4,5,{24}2b,3,4,5,6,7,8,1,2,
{24}6b,5,4,3,2,1,8,7,6,2b,3,4,{16}5,8,8,,28,,2,2,
{16}7,1,4,3,7,1,4,3,7,1,{24}5b,4,3,2,1,8,7,6,5,
{24}1b,2,3,4,5,6,7,8,1,6b,5,4,{16}3,1,1,,16,,6,6,
{16}5,6,3,7,5,6,3,7,{32}4,5,6,7,8,1,2,3,{4}4b,
{24}3b,4,5,6,7,8,1,2,3,8b,7,6,{16}5,2,2,,26,,6,6,
{16}1,8,3,4,1,8,5,6,1,8,{24}2b,3,4,5,6,7,8,1,2,
{24}7b,6,5,4,3,2,1,8,7,3b,4,5,{16}6,8,8,,38,,3,3,
{16}4,3,1,2,5,4,8,1,6,5,{24}7b,8,1,2,3,4,5,6,7,
{24}2b,1,8,7,6,5,4,3,2,5b,6,7,{16}8,3,3,,35,,5,5,
{16}2,4,8,7,3,5,1,8,4,6,{24}3b,2,1,8,7,6,5,4,3,
{24}6b,7,8,1,2,3,4,5,6,2b,1,8,{16}7,5,5,,15,,1,1,
{16}8,2,6,4,7,1,5,3,{32}6,5,4,3,2,1,8,7,
{16}2b/6b,,,,,,,,,,,,,,,,
