&title=已经没有人类了
&artist=强鼠翔(dy:虚拟之声工作室)feat 初音ミク·重音テト
&first=0
&des=不像一个人写的
&lv_5=14
&inote_5=(176)
{1},
{16}4h[8:1]/5h[8:1],,,2h[8:1]/7h[8:1],,,6,6,5,,3,,2h[8:1]/4h[8:1],,,,
{8}1xh[4:1],3,4h[8:5],3,,1,2,3h[4:1],,5,34,2,3-1[8:1]/4-8[8:1],5,34,,
{16}7h[16:3],,4,,6x,5,6,5,6,,7,,5,,8,,4,,7,,6x,5,6,5,7z3[16:4],,,,,,,,
{16}2h[8:1],,4h[8:1],,5h[8:1],,7,,6,5,,3,4,,12,,
{16}3,4,,6,5,,7qq4[16:5]/8,,,,4,,2,,,,
{8}1xh[4:1],3,4h[4:1],3,2h[4:1],3,4,5,
{8}56,7,56,4,5-1[8:1]/6-8[8:1],56,56,,
{8}7x^4pp6[16:6],,4,,1-4[8:1],,,,
{8}7^8-5q4[16:8],,4,,4qq4[16:5]*pp4[16:5],,,,
{8},,2,,8-6qq3[16:9],,,,
{8}3,,2<4[16:5],,7h[4:1],,,,
{8}3,,5x-1-3[16:4]*-1-7[16:4],,,,,,
{8}4,,8^2-6-4[16:7],,3h[4:1],,,,
{8}3,,7,,1-5b[8:1],,,,
{8}4x^1b[8:1]/1xp4[8:1],,,,8xq5[8:1]*q5[8:1]`5x^8[8:1],,,,
{8}3-1v8-6[16:7],,6,,5,,B5/B4/E5,,
{8}8^5[16:4],,2v3-5[16:6],,,,A7f/B7/B6,,
{8}4x>4[2:1],,8,,4x<4[2:1],,8,,
{8}4x,,6,,5-8[16:2]*qq5[16:4],,,,
{8}6-3-1^8-6[16:10],,B1/B8,,4x,,3x,,
{8}1,,3-6[16:5]/6q3[16:5],,,,,,
{8}8-5[8:1],,2,,1-4b[8:1],,7,,
{8}8-2v3-5b[2:1],,1h[2:1],,,,,,
{8}2pp4[16:3],,8,,7qq5b[16:3],,2,,
{8}3,,7,,4-1[16:2]/6-1[16:2],,,,
{8}7h[4:1],,B3/B4/E4,,2h[4:1],,B5/B6/E6,,
{8}B8/E8,B2/E2,B6/E6,B4/E4,Chf[4:1],,,,
{8}1-4[8:1],,7,,5-8[8:1],,3,,
{8}2,,7,,8-4^6b[16:4],,3,,
{8}2-5[8:1],,7,,7^8-4[16:3],,B2/E3,,
{8}2x,,7,,4pp1[16:6]/6qq1[16:6],,Cf,,
{1},
{4}3h[2:3],B5/B6,,B7/B8,,B5/B6,,B7/B8,2h[2:3],B5/B6,,B7/B8,,B5/B6,,B7/B8,
{4}6h[2:3],B4/B3,,B2/B1,,B4/B3,,B2/B1,7h[2:3],B4/B3,,B2/B1,5b,4b,3b,2b,
{4}1h[4:1]/5,B3/B4,1h[4:1]/6,B7/B8,
{4}1h[4:1]/5,B3/B4,1h[4:1]/6,B7/B8,
{4}3h[4:1]/8,B1/B2,3h[4:1]/7,B6/B5,
{4}3h[4:1]/8,B1/B2,3h[4:1]/7,B6/B5,
{4}8h[4:1]/4,B6/B5,8h[4:1]/3,B2/B1,
{4}8h[4:1]/4,B6/B5,8h[4:1]/3,B2/B1,
{8}1x/8x,,27,,36,,45,,
{16}36,,18,,3,4,2,8,1,,6,5,7,2,4,,
{16}1x,,,
{32}8h[8:1]/2x,3,4,5,,,
{16}7,,8^3[8:1]/3,,2,,6/8-5[8:1],,7,,
{16}8x-4-2b[16:3],,1x,,,,7,,6-1[8:1],,7,,3,,2,,
{16}8x,,,
{32}1h[8:1]/7x,6,5,4,,,
{16}2,,1^6[8:1]/6,,7,,3/1-4[8:1],,2,,
{16}1x-5-7b[16:3],,8x,,,,2,,3-8[8:1],,2,,6,,7,,
{16}1x,,,
{32}8h[8:1]/2x,3,4,5,,,
{16}7x,,8^3[8:1]/3,,2,,6/8-5[8:1],,7,,
{16}8x-4-2b[16:3],,1x,,,,6,,7v4[8:1],,,4V68[16:3],7,,3,,
{8}2x-5[8:1],2,6x-1[8:1],6,3x-8[8:1],3,7x>5[16:4],7,
{8}2hx[4:1],,,
{16}3x,4,2,,6,,78,,1,,
{16}2x,,,
{32}8h[8:1]/2x,3,4,5,,,
{16}7x,,8-3[8:1]/3,,2,,6/8^5[8:1],,7,,
{16}8x-4^2b[16:3],,1x,,,,7,,6-1[16:2],,5,,3,,2,,
{16}7x,,,
{32}1h[8:1]/7x,6,5,4,,,
{16}2,,1-6[8:1]/6,,7,,3/1^4[8:1],,2,,
{16}1x-5^7b[16:3],,8x,,,,2,,3-8[16:2],,4,,6,,7,,
{16}2x,,,
{32}8h[8:1]/2,3,4,5,,,
{16}7,,8-3[8:1]/3,,2,,6/8^5[8:1],,7,,
{16}8x-4^2b[16:3],,1x,,,,7,,6v1[8:1],,,1V75[16:3],6,,2,,
{8}3x-8[8:1],3,7x-4[8:1],7,2x-5[8:1],2,6x>8[4:1],6,
{8}3hx[4:1],,,
{16}6x,5,7,,3,,21,,8,,
{8}7^5[8:1],,,3h[4:1],,4,53,4,5,6^8[8:1],,56,,,,6h[2:1],
{8},,,3h[4:1],,4,5,6,
{8}5x/3,4,5,6x/4,5,6,7h[4:1]/5,
{16}4,3,
{8}2^4[8:1],,,6h[4:1],,5,46,5,4,3^1[8:1],,43,,,,3h[2:1],
{8},,,6h[4:1],,5,4,3,
{8}4x/6,5,4,3x/5,4,3,2h[4:1]/4,
{16}5,6,
{8}7,5,4,3,6,5,4,3h[8:1],
{8},6/B2/B3,5,4,6,5,4,3,
{8}2,4,5,6,3,4,5,6h[8:1],
{8},3/B7/B6,4,5,3,4,5,6,
{8}7,5,4,3,6,5,4,3h[8:1],
{8},6/B2/B3,5,4,6,5,4,3,
{8}2,4,5,6,3,4,5,6,
{8}6x,5,4,3,
{16}3x,,4,,
{8}5,6b,
{1},
{4}1h[2:1],B4/E4,,B6/E6,2h[2:1],B5/E5,,B7/E7,
{4}3h[2:1],B6/E6,,B8/E8,4h[2:1],B7/E7,,B1/E1,
{4}8h[2:1],B5/E6,,B3/E4,7h[2:1],B4/E5,,B2/E3,
{4}6h[2:3],B3/E4,,B1/E2,5b,4b,3b,2b,
{4}1h[4:1]/5,B6/E6,3h[4:1]/8,E8/B8,1h[4:1]/5,B6/E6,3h[4:1]/8,E8/B8,
{4}2h[4:1]/5,B5/E6,4h[4:1]/8,E8/B7,2h[4:1]/5,B5/E6,4h[4:1]/8,E8/B7,
{4}7h[4:1]/4,B4/E4,5h[4:1]/1,E2/B2,7h[4:1]/4,B4/E4,5h[4:1]/1,E2/B2,
{8}8x/1x,,72,,63,,54,,
{16}63,,81,,6,5,7,1,8,,3,4,2,7,5,,
{16}1,,,
{32}8h[8:1]/2x,3,4,5,,,
{16}7,,8-4[16:2]/3,,2,,6/8^5[8:1],,7,,
{16}3xV15b[16:3]/8,,2x,,,,8,,7,,4,,3x,4,2,,
{16}8,,,
{32}1h[8:1]/7x,6,5,4,,,
{16}2,,1-5[16:2]/6,,7,,3/1^4[8:1],,2,,
{16}6xV84b[16:3]/1,,7x,,,,2,,3,,5,,7x,5,6,,
{16}1,,,
{32}8h[8:1]/2x,3,4,5,,,
{16}7,,8-4[16:2]/3,,2,,6/8^5[8:1],,7,,
{16}3xV15b[16:3]/8,,2x,,,,8,,7x,4,,2x,5,,4,,
{8}2x-5[8:1],3,7x^4[8:1],6,3x-8[8:1],2,6x<4[4:1],7,B2/E3f/B3,,,
{16}6x,5,8,,3,,12,,8,,
{16}1,,,
{32}1h[8:1]/7x,6,5,4,,,
{16}2,,1-6[16:2]/6,,7,,3/1^4[8:1],,2,,
{16}7xV51b[16:3]/1,,8x,,,,2,,4,,8,,7x,4,6,,
{16}1,,,
{32}8h[8:1]/2x,3,4,5,,,
{16}7,,8-3[16:3]/3,,2,,6/8^5[8:1],,7,,
{16}2xV48b[16:3]/8,,1x,,,,7,,5,,1,,2x,5,3,,
{16}8,,,
{32}1h[8:1]/7x,6,5,4,,,
{16}2,,1-6[16:3]/6,,7,,3/1^4[8:1],,2,,
{16}7xV51b[16:3]/1,,8x,,,,2,,3x,8,,6x,1,,5,,
{8}6x-1[8:1],7,3x^8[8:1],2,7x-4[8:1],6,2x>8[4:1],3,B6/E7f/B7,,,
{16}3x,4,1,,6,,87,,1,,
{16}3x,4,,4,3,,21,,8,,6h,5,7,,7,,
{16}81,,2,,3h,4,2,,81,,7,,65,,4,4,||1
{16}6x,5,,5,6,,87,,1,,2,,43,,2,,
{16}21,,8,,65,,6h,5,7,,8,,21,,3,,||2
{16}3x,4,,4,3,,21,,8,,6h,5,7,,8,,
{16}21,,3h,4,2,,1,,87,,6x,5,,3x,4,,||3
{16}1x/8x,,,3,24,,18,,6,6,5,,7,,2,,
{16}18,,,6,57,,8,,24,,3,3,4,,1,,||4
{16}2x,4,,4,2,,81,,7,,6h,5,8,,4,,
{16}21,,3,,2h,4,1,,87,,6,,65,,4,4,||1
{16}7x,5,,5,7,,7h,8,6,,1,,12,,3,,
{16}54,,3,,12,,8h,5,7,,6,,78,,1,,||2
{16}2x,4,,4,2,,81,,7,,6h,5,8,,4,,
{16}21,,3h,4,1,,5,,87,,6x,5,,3x,4,,||3
{16}1x/8x,,,3,24,,1,,6h,5,7,,18,,2,,
{16}35,,,2x/6x,2x/6x,,48,,2bxqq3b[4:1]`6bxqq7[4:1],,,,Cf,,,,||4
