&title=愛言葉V
&artist=DECO*27
&first=0.325
&lv_5=13
&des_5=qjm☆LanD
&inote_5=
(139){4}5h[1:2],{8},,,,,,,,,,,,,,,5h[8:7],
{4},,,{8}4,
{16}6/5,4/3,{8},5b/4b,,C,{4}Cf/E8/B8/E1/B1/E2/B7/E7/B6/E6/B5/E5/B4/E4/B2/B3/E3,
{8}2b/8b-6[8:1],7,2/8-5[8:1],1,8/2-5[8:1],3,8/2-4[8:1],6,
2/8-4[8:1],7,8/2,3,5-8[8:1]/4v1[8:1],6/3,{4}5/4,
{8}4,2,8b-6[8:1],6>4[8:1],{2}8/4-2[8:1],
{8}7/6,5/8>2v3<5[2:1],7/6,8,A2,C,A3,A5,
2qq5[8:5],7/2,{4}7/2,{2},{4}4pp4[4:1],
4qq4[8:3],{2},{8}6/5,
6/5,5/4,5/4,4/3,4/3,6/3,6/3,
,7/2,,8/1,,A7/B6/A6/D6/A5/E8/B8/C,{4}A2/A4/B1/E2/E3/E4,
{8}5bh[4:3],{4},{8}4,,3,2,1,
8,7,6<2[4:1],5,{2}2v4[4:1],
{8},,,,,5,6,7,
8,1,2<6[4:1],3,{2}6v4[4:1],
{8},,,,,2bs6[8:7],{4},{8}4,
4,5,5,{2}5,
{4}D7/A6/D6/A5/B5/C/B4/A4/D4/A3/D3,E1/B8/B7/B6/E6/B1/B2/B3/E4/C,{8}7bqq4[4:3],3bqq8[8:5],{1},{4}5-8[8:1],
5,5-8[8:1],5,5-8[8:1]/4-1[8:1],
5/4,5-8[8:1]/4-1[8:1],{8}5/4,{4},{8}6-3<6[2:1],
,6,,,,,,5bv4-1[4:1]*v6-1[4:1],
{4},,,2-5[8:1],
7-3[8:1],4-1[8:1],8-5[8:1],2-7[8:1],
{8}6pp6qq6[2:1],{4},,,{8}3h[4:3],
,E1/B8,E8/B7,E7/B6,E6/B5,E5/B4,7/1,8bw4[4:3]*w4[4:3],
,A8,E8/B8/E1,B7/B1,B6/C/B2,B5/B4/B3,{4}A5/A4/A3/D5/D4,
{16}6,5,{8}6,{16}3,4,{8}3,{16}5,6,5,6,3,4,3,4,
6,5,6,5,{8}5/6,3/4,{4}4/5,{16}E6,B5,B4,E4,
2,4,2,4,2,3,2,3,5,3,5,3,5,4,5,4,
5,3,6,3,{8}B2/E3/B3,B7/E7/B6,{4}B7/E7/B6/C/B2/E3/B3/B8/B1/B5/B4,8<4[4:1],
{8}4>8[4:1],A6,8<4[4:1],A2,4>8[4:1],A6,8V24[4:1],A2,
4V68[4:1],A2,8V24[4:1],A6,{2}4w8[4:1],
{8},Cfh[4:5],,,,,,,,,,,,7,
8,1,
2b/7b<5[8:1],8,7/2>4[8:1],1,2/7<5[8:1],8,7/2>4[8:1],1,
2/7<5[8:1],8,7/2>4[8:1],1,2,B7/E7/B6,{4}B2/B3/A2/D3/A3/E2/E4/D2/D4,
{8}1b/7b-1[8:1],6,2-6[8:1],3,2/7-3[8:1],8,7/1-5[8:1],2,
1/8-4[8:1],7,{4}8/3-5-2[4:1],{8},,,C,
{16}6-1-6[16:3],5,6,5,{4},{16}5-2-5[16:3],6,5,6,{4},{16}8,
1,7,2,6,3,{8},E8/B7/B6/E6/E2/B2/B3/E4,6/5,5/4,4/3,
6/5,6/5,4/3,4/3,B5/E5/B4,A7/B6/E7/B3/E3/A2,D8/A8/B8/B1/A1/D2,Cf,
,,,,,3,4,5,
4b/6b-8[8:1],5,6/4-2[8:1],5,4/6-1[8:1],7,6/4-8[8:1],3,
4/6-3-7[4:1],7,{4}6,{8},D8/A8/B8/B7/E7/B6/B5/A5/D6,{4}B3/C/B1/A2/D3/A3/D4/A4/D5/A1/D2,
{8}5b-8[8:1],6,5-2[8:1],4,5v8[8:1],6,5v2[8:1],4,
5-1[8:1],6,{4}5w1[8:1],{8},,,C,
{16}6,5,6,5,{8}6/5,6/5,{16}3,4,3,4,{8}3/4,3/4,
{16}7,5,6,4,5,3,{8},6/2,5/4,6/3,7/2,
A7/D8/A8/B8/E8/B7,A1/D2/E2/B1/B2/A2,A3/B3/B4/A4/E4/D4,A6/B6/E6/B5/D6/A5,6/3,5-8[8:1]/4-1[8:1],6/3,5/4,
{4},1bh[1:2]/5bh[1:2],{8},,,,,,,,,,,,,,,,,7,
8,1,
{4}2<7[4:5],{8}6,6,5,5,4,4,
3,3,2,2,,3,4,5,
{4}6>3[4:5],{8}2,2,1,1,8,8,
7,7,6,6,,7,2-5[8:1],7,
{4}2,5h[8:9],{8}3,3,E3/B3/E4,E3/B3/E4,
3,3,E3/B3/E4,E3/B3/E4,,2,7-4[8:1],2,
{4}7,{8}4h[8:1],5h[8:1],4h[8:1],5h[8:1],4h[8:1],5h[8:1],
4h[8:1],5h[8:1],4h[8:1],5h[8:1],{4},Ch[4:1],
{8}1-3[16:1],{16}7,7x,{8}1-5[8:1],{16}6,6x,{8}1-3[8:1],{16}7,7x,{8}1x-5[8:1],{16}7,7x,
{8}1-4[8:1],{16}6,6x,{4}6x<8[8:1]/1>4[8:1],{16},,,,,6,5,6,
3,4,3,4,2,5,2,5,1,6,1,6,8,7,8,7,
8,7,8,7,{8}B7/E7/A6/B6/B5/E6,B1/E2/B2/E3/B3/A2,{4}E5/B5/B4/B3/E4,{8}8>4[4:1],C,
4<8[4:1],C,8>4[4:1],C,4V28[4:1],C,8V64[4:1],C,
4V28[4:1],C,,C,{4},6h[8:1]/3h[8:1],
{8}7/8,7/8,1/2,1/2,8/1,4/3,6/5,8/1,
6/5,4/3,{4}1/8,{2}Cfh[8:3],
{1}6bxpp4[8:61]/3bxqq5[8:61],
,,,,,,,{8}5,
4,5,4,5,4,5,4,
5,4,6-2[8:1],2-6[8:1],{2},{8}6h[8:1],
3h[8:1],6h[8:1],3h[8:1],6h[8:1],3h[8:1],6h[8:1],3h[8:1],
{4}6h[8:1],1-4-2[8:1]/5-8-6[8:1],{8},,,5,
{4}6h[8:1]/2h[8:1],7h[8:1]/3h[8:1],8h[8:1]/4h[8:1],1h[8:1]/5h[8:1],
8h[8:1]/4h[8:1],7h[8:1]/3h[8:1],6h[8:1]/2h[8:1],5h[8:1]/1h[8:1],
{8}5/4,5/4,5/4,5/4,6/3,6/3,6/3,6/3,
7/2,7/2,7/2,7/2,E7/B6/B5/E5f/B4/B3/E3,A7/D8/E1f/D2/A2/A8/A1,,,,,,,,7b,
8b,1b,
7b/2b>5[8:1],1,2/8-4[8:1],7,3-8[8:1],2,3/6-1[8:1],7,
2-4-8[4:1],3,2,6,,3,{4}1/8,
{8}1b/8b<5[8:1],7,8/1>4[8:1],2,1/8-4[8:1],7,8/1-5[2:1],2,
1,B1,C,B5,,5h[8:1]/4h[8:1],{16},{32}E6/E4,B3/B6,B2/B7,E2/E8,{16},6,
2,6,2,{8}B7/E7/B6,B2/B3/E3,{16}7,3,7,3,{8}B8/E1/B1,B5/B4/E5,
{16}5,4,6,3,7,2,{8},C,6,5,4,
2/3,1/4,8/5,7/6,6/2,7-2[16:1]/3-6[16:1],6/2,7/3/Cf,
,,,,,5,4,3,
6b/2b<6[4:1],4,2/6<2[4:1],4,2<6[4:1],4,6<2[4:1],4,
2<6[4:1],4,,,,E7/C/E3,{4}E8/C/E2/E6/E4/E7/E1/E5/E3,
{8}1b-5[8:1],2,1-4[8:1],2,1-3[8:1]/6-8[8:1],7,{4}6-1[8:1],
{8}3/6-4[8:1],2,{4}2,{8},Ch[4:1],{4},{16}6,
5,6,5,{8}7,7,{16}3,4,3,4,{8}2,2,
{16}1,5,2,6,3,7,{8},C,8/1,3/4,6/5,
E6,B6,B7,E8,E2,B2,B3,E4,
{4},5h[8:3]/1h[8:3],,1-6[8:1],
1b-4[8:1],1-5[8:1],1,{8}7/3,6/4,
6/4qq4[4:1]*pp4[4:1],{4},,,{8}2-6[8:1],
2,8-5[8:1],8,1-4[8:1],1,6,{4}6,
4-7[8:1]*-8[8:1],4b,{8}6,7,{4}8,
1b-7-2-6-3-5[8:5],{8}A1,A7,A2,A6,A3,A5,
{4}C,{8}7/8,7/8,6/1,6/1,5/2,5/2,
4/3,E8,B6/E6,E2/B2,B7,E3/B3,E7/B7,E5,
{4}C,4bw8[8:1]*w8[8:1],4b,5/4,
{8}6/4,7,5/3,2-4-8[4:1],4,2,6,6,
7-1[8:1],7,2-6[8:1],2,4-7[8:1]*-1[8:1],4,{4},{8}3/5,
2,4/6,7-5-1[4:1],5,7,3,3,
2-8[8:1],2,7-3[8:1],7,5-2[8:1]*-8[8:1],5,{4},4>1[8:1],
8<5[8:1],3>8[8:1],7<4[8:1],
{2}2<7[8:1],{4}6h[8:1]/4h[8:1],7h[8:1]/3h[8:1],
{2}8h[8:3]/2h[8:3],{4}8/1,2/3,
4/5,6/7,{8}5/4,8/1,7/2,6bpp4[4:23]/3bqq5[4:23],
E
