&title=ふたりのスタートボタン
&artist=TAG、天城サリー、小山内怜央
&first=-1.41
&des=reflectW
&lv_5=12
&inote_5=(181)
{1},
{32},,,,,,,,,,,,6-3[8:1],,,,,,,,,,,,,,,,,,,,
{4}2h[4:1]/4h[4:1],,5h[4:1]/7h[4:1],,
{4}1s5[8:3]/8z4[8:3],,,,
{4}2h[4:1]/5h[4:1],,4h[4:1]/7h[4:1],,
{16}5-1[8:1]/3,,,,,,,,2,8,2,8,2,,,,
{4}2-4[8:1],5,7-5[8:1],4,
{4}1-4[8:1],4,8-5[8:1],5,
{8}86,8,17,1,28,2,31,3>6[8:2],
{8},5,5,5,5bw1[8:1],,5b,,
{8}3,5,4,6pp5[4:1],,,,2,
{8}2,4,4,3qq4[4:1],,,,,
{8}6,5,7,4>8[4:1],,8V24[4:1],,6,
{16},,5,,5-8[8:1],,,,5/2q6[8:1],,,,21,,,,
{8}7,4,6,3qq5[4:1],,,,7,
{8}7,4,4,6pp4[4:1],,,,,
{8}3h[4:1],,5,,6h[4:1],,4,,
{8}2-5[8:1],5,2,,7-4[8:1],4,7p4[8:7]*>4[8:7],,
{8}7,,,,,,,,
{8},6,5,4,3v8[8:1],,3b,,
{4}7/1pp4[2:1],7,7,7,
{4}8/5-1[8:1],8,8/2-4[8:1],8,
{4}3/5pp8[2:1],3,3,3,
{4}4/1-5[8:1],4,4/6-8[8:1],4,
{4}1-4[8:1]/2h[4:1],,8-5[8:1]/7h[4:1],,
{4}4-8[8:1]/3h[4:1],,5-1[8:1]/6h[4:1],,
{8}3h[4:1],,5h[4:1],,4h[4:1],,6,6h[4:1],
{16},,2^5[8:1],,2,,8^5[8:1],,8,,,,2,4,2,4,
{8}2,,57,8,24,1,56,8/2pp4[4:1],
{8},8,7,6pp8[4:1],,1,2,3h[4:1],
{8},6,65,8,43,1,45,1h[4:1]/7z3[4:1],
{8},,,,,,3,3h[4:1],
{8},8,8h[4:1],,1,1-4[8:1],,6V85[4:1],
{8},5,4,3,2,2h[4:1],,5,
{8}3-1[8:1]/4-6[8:1],,3-7[8:1]/4-8[8:1],,3b/4b,,,2,
{8}1^4[8:1]/8^5[8:1],,8-4[8:1]/1-5[8:1],,8b/1b,,,6h[4:1],
{8},4,4,7,7,5-1[8:1],,7-4[8:1],
{8},3,3h[4:1],,1,1^4[8:1],,51,
{8},6,5/7h[8:3],,,5q1[8:1],4,53,
{8},2,3h[4:1]/5,,7h[4:1],,1,1pp2[4:1],
{8},6,6,,5,5pp6[4:1],,3,
{8},,4,,51,,,45,
{8},13,1,82,8,71,7,6-1[8:1]/8,
{8},5,5b,,3h[4:1],,7h[4:1],,
{8}1-5[8:1],,4-2[8:1]/1,,7-4[8:1],6,1-4[8:1],2,
{8}5,5<1[8:1],,56,,7-5[8:1],7,1,
{8},34,2,56,7-4[8:1],2,7,8,
{8}1,2-7[8:1]/6-3[8:1],,26,,15,{16}2,4,2,4,
{8}2qq4[8:3],,4,4,5,5,6,6,
{8}1,7z3[8:1]/8s4[8:1],,78,,56,47,3h[4:1]/8,
{8},8-5[8:1],8,1-4[8:1],1,7^2[8:1],7,3>6[8:2],
{8},5,5,5,5bw1[8:1],,5b,,
{8}2/8-4[8:1],,5-7[8:1]/8,,2-5[8:1],3,8-5[8:1],7,
{8}4,4>8[8:1],,43,,2-4[8:1],2,8,
{8},65,7,43,2-5[8:1],7,2,1,
{8}8,7^4[8:1]/3^8[8:1],,73,,26,{16}7,5,7,5,
{8}7h[4:1],,5h[4:1],,8,8h[4:1],,2qq7[8:3],
{8},7,6,5,4-7[8:1],,4-1[8:1]/3,,
{8}4-8[8:1]/5,,4/3V15[4:1],,7,7,,46,
{16},,2,1,2,,36,,4,5,4,,7,8,7,,
{8}2-8[8:1],3,5-8[8:1],6,4-1[8:1],3,7p3[8:1],8,
{8}2q6[8:1],1,8-5[8:1],7,1-4[8:1],2,6-8[8:1],5,
{8}3-1[8:1],4,7-4[8:1],6,8-3[8:1],1,6-1[8:1],7,
{8}5-2[8:1],4,8-4[8:1],7,1-5[8:1]*s5[8:1],,1,,
{16}2-4[8:1],,1-5[8:1],,2,,1,,8-4[8:1],,7-5[8:1],,8,,7,,
{8}3pp3[4:1]*qq3[4:1],,,,,,1-4[8:1]/5,,
{8}1/5-8[8:1],,15,,45,36,27,18,
{8},18,27,3qq5[4:2]/6pp4[4:2],45,,,,
