&title=Hydra
&artist=James Landino X Akira Complex
&first=0
&des=请输入文本
&lv_7=狂 15?
&inote_5=
&inote_7=(160){64}{4},,,,{32}1bv6<8[4:3]/5b>2[8:1],8,7,6,,,,{8}5,,,1v4[8:1],,,,1,
{16}2/8,,,7/3,,,6/4,{32}4b,E4,E3,A2,,,5b,B5,C,B1,,,6b>4-2<8[4:3],E7,E8,A8,,,
{16}1,,,3,{4},,,
{16}8,,,6,,,,{32}8b,1,2,3,,,7b,8,1<1[4:1],2,,,6b,7,8,1,,,
,,{64}A1/E2,D1,A8,D8,A7,D7,A6,D6f,,,,
{16},8,,,,8,,,,8,,,4,8,,6,,8,,
{32}7b,E7,E6,A5,,,8b,B8,C,B4,,,1b,E2,E3,A3,,,
{16}4,,,2,,{32}1p5p1b[8:1]/6,2,3,4,,,,,1b,,,,,,,,
{21}8h[8:1]/6,,,,5/6h[8:1],,,,3/5h[8:1],,,,1/3h[8:1],,,{42},,
{32}1/8,7,6,5,4,3,2,1,
{16}8-4[8:1]/3,,5,,8,1,,3,
7-3[8:1]/2,,4,,7,8,,2,
6-2[8:1]/1,,3,,6,7,,1,
5-1[8:1]/8,,3b,,5,2b,,,
{32}1b,2,3,4,5,6,7,8,
{16}1,1,,5,3/8,,
2,,2,2,,4,2/7,,
3,,3,3,,1,3/6,,
{32}8b,1,2,3,4,,1b,8,7,6,5,,C,,,,
{16},,{32}8/4,7/3,6/2,5/1,,
{16},8/C,8,8,8,6,6,6,6,{32}C/3,2,1,8,{16},,5,5,5,5,C/4,4,4,
{32}4,3,6,7,4,3,7,8,4,3,
E3f/8b,,,,{16},2b/E8f,,,6b/E4f,,
3b-7b[16:1]/E1f,,,7b/E5f,3x,,4bh[32:37],,
{16}E4,A3,B3,E3,B2,,E2,,E2,,E2,,E2,,{32},{8},
8-3[8:1],,8/3V14-8[3:1],,4,3,2,,{16}2-4[8:1]/5,1,,2/7v4[8:1],1,,
{32},,,,3,,,,2b,,,,1,,6b,,,,,,
{8}7b-4[8:1],,7/5-1-5[3:1],,2,4,2,,{16}4,3/6,,1,8/3,,
{32}1-6-4-8[3:1],2,1,,{8}3,2,1w5[8:1],,,,
7/1-6[8:1],,1-3[8:1],4,1-5[8:1],,
{16}5qq4[4:1],5,,4,4pp6[4:1],,7,,{8}5,7,1,,
{32}2bv7[8:1],E3,E4,A4,,,,,,,,,,,,,6bs2b[8:1],E7,E8,A8,,,,,3b,,,,,,4,,
4b,3,2,1,,,4b,5,6,7,,,4b,3,2,1,8,,6b,7,8,1,2,,{48}3b,2,1,8,7,6,5,4,3,2,1,8,{8}7-1[8:1]/Cf,
,7/6-2[8:1],,6/5-3[8:1],3,5,,
{16}6,6,2,4,4,,1-3[8:1],3,8-6[8:1],6,1,,8w4[8:1],,,,,,,,
8b/2,,3,3,1b,3,5b,,{24}5-8[8:1]/7b,8,1,2,3,4,{8}5-2[8:1]/1,3,1/5-8[8:1],7,1/5-7[8:1],3,1/5w1[8:1],3,,,
{16}4/6,,1,4,3,7,5,1,5p1p5[6:1],5,5,5,5b,,,,4,4,4,4q8q4q8q4[3:1],4,4,4,4b,
{48}B5,B6,B7,B1,B2,B3,B5,B6,B7,B1,B2,B3,
{4}A4f/D4/D5,,6b-2b[16:1]/A2f/D2/D3,{16},,,
{32}3,4,{21}5-2b[16:1],,,,8-4b[16:1],,,,1-5b[16:1],,,,7-4b[16:1],,,{42},,
{8}8bh,,
{32}5b,,,,2h,,,8h,,5,,,,2h,,,
4bh,,,,7,,,1,,4h,,,,7,,,
4b,,,,1h,,,7h,,4,,,,2h,,,
3bh,,,,8,,,2,,5h,,,,7,,,
6b,,,,1h,,,7h,,4,,,,2h,,,
5bh,,,,8,,,2,,5h,,,,7,,,
4b,,,,2h,,,8h,,5,,,,2h,,,
4bh,,,,7,,,1,,4h,,,,7,,,
5b-1b[16:1],,,,,,,,
A5,Cf/B6/B4/B2/B8,A1,,
{16},,8,5,6,2,4,8,8,8,{64}8,B8,C,B4,A4f/D4/D5,,,,,,,,{16}1,1,1,1,1,1,1,1,1,
{32}1b,8,6,5,2b,1,6,5,3b>5[4:1],2,,,
{8},,,8>4b[16:1],,,
{32},1,,1b/7,2/6,3/5,4,,,7b/4,6/3,5/2,4,,,4b/8,5/1,6/2,7/3,4,,4b/7,3/6,2/5,1/4,8,,
{48}8b-4V28V64[1:4]/4,7,6,5,4,3,2,1,8,7,6,5,{2}4/8,
,,,,,,,6<6[4:14],,,,,,,,
{16}3,,,,3,,4,,,,4,,6,,,,3,3,7,4,4,,5,6,4,5,3,,1<1[3:2],,,,
{4}5-1[8:1],5,8>6[3:1],7-3[8:1],7<4[6:1],7V13[4:1],3V57[4:1],7,
{16}1,,,,6,,8,,,,8,,2,,,,4,4,1,5,5,,6,8,4,3,1,,5>5[3:2],,,,
{4}1-5[8:1],1,4<2[3:1],3-7[8:1],3>8[6:1],3V57[4:1],7V13[4:1],3,
{32}4b,5,6>4[8:1],,,,5b,6,7,,,,3b,2,1h[6:2],,
8b,7,6,,,,2b,3,4<6[8:1],,,,5b/1,4/8,3>1[8:1]/7,,
4b,,,,,,3b,,,,,,8b/4,1/5,2V47[4:1]/6V83[4:1],,{8},,,,
{32}1b,8,7>1[8:1],,,,8b,7,6,,,,3b,4,5h[6:2],,
2b,3,4,,,,8b,7,6-3[8:1],,,,1b/5,8/4,7-2[8:1]/3,,
6b,,,,,,7b,,,,,,8/4b,1/5,2-5-7[4:1]/6-1-3[4:1],,{8},,,,
{16}6b,2,5,1,4,8,3,7,1b/5,1/5,1/5,1-6[8:1]/5-2b[8:1],1/5,1/5,1/5,1/5,,,,,
3/7h,3/7h,4/8h,4/8h,2h/6b,2h/6,
{32}4h,3h,5,6,2h,3h,7,6,4h,5h,
8b,1[32:3],3,2h[32:6],,,,,5,4h[32:6],,,,,7,6h[32:3],,,
1b-5b[16:1],8h,,,4/6,,,,{16}1/4h[4:3],,,,
3b,2b,3b,2b,3b,,7bw3[8:1],,3bw7[8:1],,7b,,,,,,
{16}2/4-1[8:1],2,6/4,6,1/4,,{32}4,5,{16}4,,4,1,5,7,1,4,2,
{16}7/5-8[8:1],7,3/5,3,5/8,,{32}5,4,{16}5,,5,8,4,2,8,5,7,
{16}5,5,8,8,2,,{32}2/6,3,{24}4,1/6,2,3,5,6,7,2,3,4,7,8,{16}1,
{16}1,1,4,4,7,,{32}7/3,6,{24}5,8/3,7,6,4,3,2,7,6,5,2,1,{16}8,
{48}5-1[8:1],4,3,2,1,8,7,6,5/3,,,,{16}5/7,,,,
{32}4,,5,,5,,{16}3,1,7,4,6,
{48}4-8[8:1],5,6,7,8,1,2,3,6/4,,,,{16}4/2,,,,
{32}5,,4,,4,,{16}6,8,2,5,3,{48},
{16}5/4,5/3,5/2,5/1,,{24}6/5,5,4,{16}3,{16}4/5,4/6,4/7,4/8,,{24}3/4,4,
{24}5b/4b,5b/6b,6b/7b,,{16},4,1/5,,4,3/7,,8v3<4b[8:1]`4v7>8[8:1],,2/6,,8/4,,,,
{32}E3f/8v3-5-7[2:1],,E2f/7h,,E3f/6h,,E2f/7h,,E3f/8>3-1b[4:1],,,,{8},,,,,
{32}E6f`8v5-3-1b[2:1],,E7f`1h,,E6f`2h,,E7f`1h,,E6f`8<5-7[4:1],,,,{8},,,,,
{24}1,2,3,4,5,6,{32}8v5[8:1]/8?-6[8:1],1,2,3,,,,,{4}8>4[8:1],8/7,
{24}8,7,6,5,4,3,{32}1v4[8:1]/1?-3[8:1],8,7,6,,,,,{4}1<5[8:1],1/2,,
A1/A2/A3/A4/A5/A6/A7/A8/B1/B2/B3/B4/B5/B6/B7/B8/D1f/D2/D3/D4/D5/D6/D7/D8/E1/E2/E3/E4/E5/E6/E7/E8,
{16}4/5,4/5,4/5,4/5,4/5,4/5,4/5,4/5,Cf/A1/A2/A7/A8/B1/B2/B7/B8/D1/D2/D3/D7/D8/E1/E2/E3/E7/E8,,,B5/B4,B5/B4,B5/B4,B5/B4,B5/B4,B5/B4,B5/B4,
{32}4,5,4h,5h,4,5,4h,5h,4,5,4h,5h,4v1V35b[4:1],,,,{8},,,8v5V71[4:1],,,
{24}8,2,4,{16},,5,1/6,,{16}4,8/3,,{8}1/8,8/7,{32}7/6,8/7,1/8,1/2,2/3<6[32:12],,,
{8}6,,{32}8,7,6V84-2[8:3],,,,,,{8}1,5,1,,
{16}C,C,C,C,C,,8,,3/4,,1/8,,2/6>3[32:12],,,,
{8}3,,{32}1,2,3V15-7[8:3],,,,,,{8}8,4,8,,
{16}C,C,C,C,C,,1,,6/5<7[16:3],,1/8,,5/3,,,,{32}8/4w8[8:1],1,2,3,
{16}4,,{8},,5h[8:2]/4,7,3,,5/4,5/8,6/3,6/8,5/2,6/4,5/8w4[8:1],,
{8},,{64}3<6[8:1],2,1,8,7,6,5,4,{8}3h[8:3],,,{128}A6/E7/D7f,D6,A5,D5,A4,D4,A3,D3,A2,D2,A1,D1,A8,D8,A7,,{32},,
{16},{20}2b,5,4,5,1b,6,4,6,8b,5,4,5,1b,6,4,6,{40}8b,1,2,3,4,5,6,7,
{4}8-5[8:1],{16}2,1,3,2,4-1[8:1],,5,,6,,7,,
{4}8-3[8:1],{16}6,7,5,6,4-7[8:1],,,7b,,,2b,,
{4}5b-8[8:1],{16}1,8,2,1,3,,6,,7-2[8:1],,{24}8,7,6,
{8}5/7-3[8:1],5,{16}3/7-4[8:1],,8,,{32}5b,6,7,8,,,,,3b/5-2[8:1]/5?-8[8:1],2,1,8,7,,,,
{8}5w1[8:1],,,,
{16}3,6,1,8,4,5,1,8,C/A3/A4/A5/A6/B3/B4/B5/B6/D3/D4/D5f/D6/D7/E3/E4/E5/E6/E7,,,,1/8,1/8,1/8,1/8,B1/B8,B1/B8,B1/B8,B1/B8,{32}2h,3h,7,6,1h,2h,8,7,
{8}5b>5[4:1],,,,8bV24V68[4:1]/8?-3b[16:1],,,
{32},,1,,1b,2,3,4,,,7b,6,5,4,,,4b,5,6,7,8,,4b,3,2,1,8,,
{48}8b-2-7-3[3:4]/4,7,6,5,4,3,2,1,8,7,6,5,{2}E5f/8b,D7,D3,
