&title=天
&artist=Aglaia
&first=0.008
&des=Respect for MMFC4
&lv_5=14
&inote_5=(185){1},,
{8}5q8[8:8],,,,,,4-1[8:2],,,,,,18,27,36,4>5[16:15]/5<4[16:18],3b/6b,,,,,,,,,,,
{16}6,7,8,1,2,3,4,5,6,7,8b,,,,
{8}4,4-1[8:1],,7-3[8:1],,2h[8:3],,,
{16}8,7,6,,1-3[8:1],,1-7[8:1],,,,,,5,,,,7,,7-3[8:1],,,,5V38[4:1],,,,7h[8:2],,,,,,,,1,2,3,,8-4[8:1]*-3[8:1],,8,,,,,,,,
{8}5,5-8[8:1],,1,,2-6[8:1],,8v3[8:1]*v5[8:1],,8,,1,2,3,6,5,3,4qq5[8:3],,4/6h[4:1],,,,6,7,8h[4:1],,
{16}3,4,5,6,7,8,1b,,,,
{8}5,5-8[8:1],,2-6[8:1],,7h[8:3],,,
{16}1,2,3,,8-6[8:1],,8-2[8:1],,,,,,4,,,,2,,2-6[8:1],,,,4V61[4:1],,,,2h[8:2],,,,,,,,8,7,6,,1-6[8:1]*-5[8:1],,1,,,,,,,,
{8}4,4-1[8:1],,8,,6v1[8:1]/2-5[8:1],,62,,
{16}8,7,6-2[8:1],,3-5[8:1],,6,,3,,
{8}8,7,6,5v8[8:1]/3v8[8:1],,35,,2V48[4:1]/6,,7,6,5,
{16}1,2,3,4,5-1[8:1],6,7,8,1bp6[8:12]*q4[8:12],,,,,,,,,,,,,,,,,,,,,,,,,,,,,,,,5bq8[8:12],,,,,,,,,,,,,,,,,,,,,,,,,,,,,,5,,5-8[8:3],,,,,,,,,,,,5-8[8:3],,6h[8:7],,,,,,,,,,,,,,5pp4[8:5],,4,,,,,,,,,,
{8},,3,3h[4:2],,,1,1h[4:1],,8h[4:1],,5,5<4[8:7]*>6[8:7],,,,,,,,,,,,8,7,6-3[8:1],5,4bqq5[8:4],,,6,6,,7,7-3[8:1],,1h[8:3],,,
{16}2h[16:3],,,3h[16:3],,,4,,5bpp4[8:4],,,,,,
{8}3,3,,2,2-6[8:1],,8h[4:3],,,7,6,5,4,7,5,6,4-1[8:1],5,4,,8,7,7,2,1,7,8,6,1,1>4[4:1],,4<8[4:1],,8>5[16:5],,5,,6,6,7,7,
{16}7,8,7,1,6,2,5,3,4b-1[8:1],,,,5V74[8:2]/4,,6,,,,,,1b-6[8:1],,,,14,,5s1[8:3],,,,,,,,,,,,,,
8b-5[8:1],,,,1V38[8:2]/8,,2,,,,,,5b-2[8:1],,,,58,,1s5[16:5]*z5[16:5],,,,,,,,,,,,3b/7b,,,,2-5[8:1],,1,,,,8,,7,,46,,3,,2/5<8[8:1],,,,15,,2-5[8:1]*-4[8:1],,,,2,,,,6,,7<4[8:1],,8,,7,,1-5[8:1],,,,15,,6,,7,,8>3[8:1],,,,83,,5-1[8:1],,,,8,,7,,6,,
{8}5b<8[8:1]/2,4,3,2b-6[8:1],,26,5b-8[8:1],4,3,2pp6[16:6],
{16},,,,1,,,8,,,7,,{8}4b>1[8:1],5,6,7b-3[8:1],,73,4b-1[8:1],5,6,7,
{16}8<2[8:2],,,,2,,,1,,,8,,1<3[8:2]/7bV53[8:2],,,
{16},,,,,,,,,1,,8,,7-3[8:1],,,,73,,1>4[8:1]*q5[8:1],,,,1,,,,6,,7-3[8:1],,7,,1,,1,,1,5,2,6,3,7,4-1[8:1]/8-5[8:1],,,,48,,,,26,37,48,15,6,7,8,1,2,3,4b-1[8:16],,,,,,,,5h[2:1],,,,,,,,,,,,,,,,8h[2:1],,,,,,,,,,,,,,,,5-8[8:10],,,,,,,,,,,,1,,,,2,,,,3,,,,4p1[8:7],,,,,,,8,8h[2:1],,,,,,,,,,,,
{12}7,6,5,1,2,3,
8,7,6,
{8}5q8[8:7],,,
{16},1,1h[2:1],,,,,,,,,,,,
{12}2,3,4,8,7,6,1,2,3,
{8}4b/5b,,5,,5/2h[4:1],,5,,5/3h[4:1],,5,,5/4-1[8:1],,5,,8b,,4,,4/5q8[8:4],,4,,4,,4,,4/5-8[8:1],,45,,1b,1,
{12}18,7,6,1,8,7,2,1,8,3,2,1,4,3,2,5,4,3,6,5,4,73,2,1,48,7,6,15,4,3,26,1,8,
{8}57,57,24,24,
{32}81,2,3,4,5,6,7,8,1,2,3,4,5,6,7,8,
{8}1b-5[8:1],,51,6V82[16:3],,46,3h[4:1],,5-1[8:1],2-6[8:1],5,2,8>3[8:1],,5qq8[16:6]/8,,57,,6,6h[4:1],,
{16}1,1,5,6,7,8,2,3,4,5,1-5[8:1],,,,1>4[8:1]*<6[8:1],,,,1,,,,
{8}8b-4[8:1],,48,3>7[16:3],,53,6h[4:1],,4-8[8:1],7-3[8:1],4,7,1<6[8:1],,4pp1[16:7]/1,,42,,3,3h[4:1],,
{16}8,8,2,1,2,1,3h[16:2],,6,5,7h[8:1],,8,,8,7,1,6,2,5,3,4,3b>8[8:1],,,,7,6,5,4,3,2,1,8,75,4,3,2,6-2[8:1],,1-5[8:1],,6,,1,,8,,7,,6<1[8:1]/4,,,,2,3,4,5,6,7,8,1,24,5,6,7,8/4-8[8:1],,,,4<7[8:1]*>1[8:1],,,,4w8[8:1],,,,4,,,,2-8[8:1]/6,,,,2/7-3[8:1],,,,1v6[8:1]*v4[8:1]/7,,,,1,,,,3/7,,
{32}8,7,6,5,
{8}3/4-7[8:1],,4/2-5[8:1],,8-3[8:1]/2,7,6-1[8:1]/8,6,4-7[8:1]/6,3,2-5[8:1]/4,2,8-3[8:1]/2,7,68,6,
{16}6,8,7,1,8,2,1,3,
{32}4,5,6,7,8,1,2,3,4,5,6,7,8,1,2,3,
{8}4b,,75,7-5[8:1]/5-1[8:1],,57,,8>3[8:1]*q4[8:1],,8,,6v1[8:1],2-5[8:1],6,2,8,7<4[8:1],6,78,1-5[8:1],2,18,7,6-2[8:1],,2,3,48,5-1[8:1],8-6[8:1],5,8,2h[4:1],,4,2-4[8:1]/4-8[8:1],,42,,1p5[8:1]*<6[8:1],,1,,3v8[8:1],7-4[8:1],3,7,1,2>5[8:1],3,21,8-4[8:1],7,81,2,3-7[8:1],,7,6,51,4-8[8:1],1-3[8:1],4,1,
7-3[8:1],,7,4-1[8:1],,5-8[8:1]/4,,6>3[8:1]/5,,2<7[8:1]/6,,5-1[8:1],,1,3,4,5>2[8:1],6,7,8-4[8:1],,38,2,1h[4:1],,5,6,71,2-5[8:1],8-4[8:1],2,8,2-6[8:1],,2,5-8[8:1],,4-1[8:1]/5,,3<6[8:1]/4,,7>2[8:1]/3,,4-8[8:1],,8,6,5,4b/3b,2,8,5b/6b,7,1,2b/5b,
{16}3,4,3,,4b/7b,,6,5,7,,1/8b,,2/6b,,4bp1[8:6]/7,,2b/5q8[8:5],,,,,,,,,,,,,,,,,,
{32}1b/8b,27,36,5<4[16:27]/4>5[16:24],,
