&title=《種子》 ~ Set You Free
&artist=Iris
&first=1.32
&des=cqxl
&lv_5=14
&inote_5=(185)
{16}
1s5[2:1]/8z4[2:1],,,,,,,,,,,,
{16}
,,,,2h[2:1],,,,4,,,,
{16}
6,,,,7h[2:1]/5qq3[4:1],,,,,,,,
{16}
,,,,2h[2:1],,,,4,,,,
{16}
6,,,,7,,7h[8:5],,4,,,,
{16}
6,,,,2h[4:1],,,,4h[4:1],,,,
{16}
6>3[4:1],,,,,,,,6,,,,
{16}
6,,,,2h[2:1],,,,4,,,,
{16}
6,,2,4,3,,6,,7h[2:1],,,,
{16}
5,,4,,3,,,,2qq1[4:1]/5h[2:1],,,,
{16}
,,,,,,,,7h[2:1],,,,
{16}
5,,4,,3,,,,2q4[2:1]/5h[2:1],,,,
{16}
,,,,,,,,7h[4:1],,,,
{16}
5h[4:1],,,,3<6[4:1],,,,,,,,
{16}
3,,,,3,,6,5,6,,4,5,
{16}
4,,6,5,7,4,7,4,6,3,6,3,
{16}
5h[2:1],,,,4,,,,2,,,,
{16}
2,,4,,3,,5,,4h[4:1],,,,
{16}
6,,4,,5,,3,,4h[4:1],,,,
{16}
8pp2[4:1]*qq6[4:1],,,,,,,,,,,,
{16}
1h[4:1],,,,7h[4:1],,,,5h[4:1],,,,
{16}
1,,4,,8,,3,,7>5[8:5],,,,
{16}
2h[2:1],,,,,,,,,,,,
{16}
1,,6,,8,,7,,1,,6,,
{16}
2-5[4:1],,,,6,,6,,,,,,
{16}
7-4[4:1],,,,5,,,,3,,,,
{16}
1-5[4:1],,,,4,,,,6<4[2:1],,,,
{16}
7,,,,,,,,7,,6,,
{16}
3h[4:1]/5,,,,4h[4:1],,,,1h[4:1],,,,
{16}
8h[4:1],,,,5h[4:1],,,,6h[4:1],,,,
{16}
7,,6,,5,,6,,4,,5,,
{16}
3,,3,,2h[128:1]/4h[128:1],,2h[128:1]/4h[128:1],,1h[128:1]/5h[128:1],,1h[128:1]/5h[128:1],,
{16}
8-5[8:1],,,,6,,6-3[8:1],,,,2,,
{16}
2V48[4:1],,,,7,,7,,7-5[8:1],,,,
{16}
7-3[8:1],,,,4,,4-1[8:1],,,,5,,
{16}
5V74[4:1],,,,1,,1,,1-3[8:1],,,,
{16}
1-5[8:1],,,,7,,7-2[8:1],,,,4,,
{16}
4V25[4:1],,,,1,,1,,1-6[8:1],,,,
{16}
4h[4:1],,,,7,,6h[4:1]/5,,,,5,,
{16}
3h[4:1]/8,,,,7,3,6,4,5-8[8:1]*-2[8:1],,,,
{16}
5,,,,1-5[8:1],,8,,7-3[8:1],,,,
{16}
3-6[8:1],,2,,1-4[8:1],,,,5-7[8:1]*-1[8:1],,,,
{16}
5,,,,8-4[8:1],,1,,2-5[8:1],,,,
{16}
5-1[8:1],,6,,7-4[8:1],,,,8,,,,
{16}
2>5[4:1],,,,5<8[4:1],,,,8,,,,
{16}
1>4[4:1],,,,4<7[4:1],,,,7,,,,
{16}
8,,8h[4:1],,,,1,,7,,2,,
{16}
6,,6,,6,,,,3b/5,,3b/5,,
{16}
3b/5,,2,1,2h[4:1],,,,6-2[8:1],,,,
{16}
2V47[2:1],,,,1,,1,,1,,1,,
{16}
1>6[4:1],,,,6b>1[4:1],,,,1b,,,,
{16}
6b,,,,8,7,1,6,2h[4:1],,,,
{16}
4h[8:1],,3h[8:1],,6h[8:1],,5h[8:1],,8h[4:1],,,,
{16}
3,8,4,7,5h[8:1],,6h[8:1],,3h[8:1],,4,,
{16}
1b/6b,,4,,2,,1b/7b,,5,,4,,
{16}
2b/8b,,6/4,,6/4,,2b/1b,,5/7,,5/7,,
{16}
8-3[8:1]/4b,,,,2h[8:3],,,,,,4,,
{16}
5<8[8:1]/2>5[8:1],,,,,,,,1,,3,,
{16}
8<3[2:1]/4,,,,3,,,,2,,,,
{16}
1V73[8:3],,,,7,,,,6,,,,
{16}
6-1[8:1],,7,,2-6[8:1],,3,,8,,8h[8:1],,
{16}
4-8[8:1],,3,,7-4[8:1],,6,,1,,1h[8:1],,
{16}
5,,6,,5pp3[8:3],,4,,3,,,,
{16}
,,,,1,8,1,,7p4[2:1]/2q5[2:1],,6/3,,
{16}
,,,,,,,,,,,,
{16}
4bqq5[2:5]*qq5[2:5]/5b,,,,,,,,,,,,
{16}
,,,,,,,,,,,{32}6,7,
{16}
8qq1[1:1],,,,,,,,,,,,
{16}
,,,,,,,,,,,,
{16}
3,,4,,5h[8:3],,,,,,2,,
{16}
4,,6h[2:1],,,,,,,,3,,
{16}
5,,7h[2:1],,,,,,,,3,,
{16}
3,4,2,5,1<6[8:1],,,,4,,4>1[8:1],,
{16}
,,7,,7h[4:1],,,,{12}2,3,4,
{16}
5h[8:1],,6,5,6,,7,,3,,2,,
{16}
6,,5,,1-5[8:1],,,,,,,,
{16}
8/4,,,,7/3,,,,6/2,,,,
{16}
1/5,,2/4,,3/5,,4/6,,3/7,,2/8,,
{16}
1,2,3,4,7,6,5,4,{24}7,6,5,4,3,2,
{16}
1-5[8:1]/8-4[8:1],,,,,,,,2,6,1,7,
{16}
8-4[8:1],,7-3[8:1],,8,,7,,1v6[8:1],,,,
{16}
5h[4:1],,,,7,8,1,2,3V52[4:1]/7,,,,
{16}
,,1,,8>3[8:1],,7,,8<5[8:1],,7,,
{16}
8,,1,,8,1,2,3,4-8[8:1],,8>3[8:1],,
{16}
4,,7,,6V84[4:1],,,,4-6[8:1],,,,
{16}
,,1,,2,,3,,6h[4:1],,8,,
{16}
4h[4:1],,8,,5h[4:1],,1,,3,,1,2,
{16}
8,3,7,4,6<2[4:1],,,,2>6[4:1],,,,
{16}
4,,,,1h[4:1],,,,8,,8,,
{16}
1/7,,1/7,,2V86[4:1]/6,,,,6V42[4:1],,,,
{16}
5,,,,8h[4:1],,,,1,,1,,
{16}
2/8,,,,7,,6/5,,,,3,,
{16}
2/4,,,,7,,3,,6/4,,,,
{16}
5qq2[2:1]/6pp1[2:1],,,,,,,,,,,,
{16}
,,,,2/1,,2/1,,2/1,,2/1,,
{16}
1-5[8:1],,2-6[8:1],,1,,2,,8v3[8:1],,,,
{16}
4h[4:1],,,,2,1,8,7,6V47[4:1]/2,,,,
{16}
,,8,,1<6[8:1],,2,,1>4[8:1],,2,,
{16}
1,,8,,1,8,7,6,5-1[8:1],,1<6[8:1],,
{16}
5,,2,,3qq3[4:1],,4h[32:1],,,,,,
{16}
5-2[8:1],,6-1[8:1],,5,,6,,3h[8:1],,4h[8:1],,
{16}
5h[8:1],,6,5,7,,3,4,2,,6,5,
{16}
7,4,8,3,1h[4:1],,,,4-7[8:1],3,2,1,
{16}
4,,,,3-5[8:1],,,,3-8[8:1],,7-4[8:1],,
{16}
3,,7,,1h[8:1],,,2/5h[8:1],,,3h[8:1]/6,,
{16}
7,6,5,2,3,4,8,7,6,1,2,3,
{16}
8-4[8:1],,,,2,,3,,,,6,,
{16}
7/5,,,,2,,6,,3/5,,,,
{16}
7h[8:1],,5h[8:1],,6,,1h[8:1],,3h[8:1],,2,,
{16}
8h[8:1],,3,8,3h[8:1],,7h[8:1],,2s6[2:1],,6z2[8:3],,
{16}
1b,,,,,,,,
{16}
,,,,,,,,,,,,
{16}
,,,,,,,,,,,,
{16}
,,,,,,,,,,,,
{16}
,,,,,,,,,,,,
{16}
,,,,,,,,,,,,
{16}
,,,,,,,,,,,,
{16}
2h[8:1],,,,,,2,,,,2,,
{16}
,,2,,4,,3,,6,,5,,
{16}
7qq8[2:1],,,,,,,,,,,,
{16}
2qq3[2:1],,,,,,,,,,,,
{16}
6h[4:1],,,,5h[4:1],,,,4qq7[2:1],,,,
{16}
3,,,,,,,,,,2,3,
{16}
4>7[2:1],,,,,,,,,,,,
{16}
5pp7[4:1]*qq3[4:1],,,,,,,,,,,,
{16}
2,,8,,3,,7,,4,,6,,
{16}
5,,5,,6h[128:1]/4h[128:1],,6h[128:1]/4h[128:1],,7h[128:1]/3h[128:1],,7h[128:1]/3h[128:1],,
{16}
8<5[8:1],,,,3,,3>8[8:1],,,,4,,
{16}
4pp4[4:1],,,,1,,1,,1>3[8:1],,,,
{16}
1q5[8:1],,,,7,,7p3[8:1],,,,4,,
{16}
4h[4:1],,,,2,1,8,7,3,2,1,8,
{16}
4<7[8:1],,,,1,,1>4[8:1],,,,8,,
{16}
8qq8[4:1],,,,3,,3,,3<6[8:1],,,,
{16}
7h[4:1],,,,2,,3h[4:1]/4,,,,4,,
{16}
6h[4:1]/1,,,,2,6,3,5,4>1[8:1]*<7[8:1],,,,
{16}
4,,,,8-4[8:1],,2,,8V61[4:1],,,,
{16}
1-5[8:1],,2,,3-8[8:1],,,,7-3[8:1]*-5[8:1],,,,
{16}
7,,,,2-6[8:1],,4,,2V41[4:1],,,,
{16}
1-5[8:1],,8,,7-4[8:1],,,,2,,,,
{16}
2-6[8:1],,,,2/5-8[8:1],,,,4/5-2[8:1],,,,
{16}
5/7-3[8:1],,7,,7/1-6[8:1],,1,,1/5,,5,,
{16}
4,5,3,5,2,5,1,6,2,7,3,8,
{32}
4w8[8:1],5,6,7,8,1,2,3,{16},,,,2,6,3,7,
{16}
4-2[8:1],,8-4[8:1],,4,,8,,1<6[8:1],,,,
{16}
1/5h[4:1],,,,4,3,2/6,1/7,8V25[4:1],,,,
{16}
,,6,,7-5[8:1],,3-8[8:1],,7-3[8:1],,3,,
{16}
7,,,,8,1,2,3,4>1[8:1],,7<4[8:1],,
{16}
4,,7,,8-4[8:1],,,,5,6,7V58[4:1],,
{16}
,,2,,3,,4,,5h[8:1]/6,,8,,
{16}
4h[8:1]/5,,7,,4h[8:1]/3,,1,,5h[8:1]/4,,2,5,
{16}
3,6,4,7,5V38[4:1],,,,8V62[4:1],,7,,
{16}
6,,,,8h[4:1],,,,1,,2/8,,
{16}
3/7,,4/6,,5V72[4:1],,,,2V48[4:1],,3,,
{16}
4,,,,1h[4:1],,,,8,,8,,
{16}
7-3[8:1]/1,,,,2,,2-6[8:1],,,,7,,
{16}
8<5[8:1],,,,4,,3,,2,,,,
{16}
1pp4[2:1]/5pp8[2:1],,,,,,,,,,,,
{16}
,,,,3/7,,3/7,,2/6,,2/6,,
{16}
5-7[8:1],,1-5[8:1],,5,,1,,8>3[8:1],,,,
{16}
8/4h[4:1],,,,5,6,7/3,8/2,1V74[4:1],,,,
{16}
,,3,,2-4[8:1],,6-1[8:1],,2-6[8:1],,6,,
{16}
2,,,,1,8,7,6,5<8[8:1],,2>5[8:1],,
{16}
5,,2,,1z5[4:1],,4h[32:1],,,,,,
{16}
4-7[8:1],,3-8[8:1],,4,,3,,6h[8:1],,2h[8:1],,
{16}
4h[8:1],,1,4,3,,8,5,6,,1,4,
{16}
2,5,3,6,4h[4:1],,,,1-4[8:1],2,3,4,
{16}
1/5,,,,6-4[8:1],,,,6-8[8:1],,2-6[8:1],,
{16}
6,,2,,1h[8:1],,,3h[8:1]/8,,,4/7h[8:1],,
{16}
5,6,2,5,3,4,2,8,3,7,4,6,
{16}
5-1[8:1],,,,8,,8-4[8:1],,,,2,,
{16}
3h[4:1],,,,5,,3,,2/7,,,,
{16}
3/8,,2,,1,,2/7,,1,,8,,
{16}
1/6,,8,,7,,1b,8b,1b,,7p4[2:5],,
{16}
2q5[2:5],,,,,,,,,,,,
