&title=雪月花
&artist=ダルビッシュP / GUMI
&first=0.04
&des=ReMaKe From the ANOTHER Side
&clock_count=4
&lv_5=13+
&inote_5=(180){1},
{16}3h[4:1]/5,,,,4,,3,,5,,4,,6,,5,,6-4[8:1],,,,
3,,3h[4:1],,,,4,,4,,2,,2-4[8:1],,,,,,5-7[8:1],,,,1-3[8:1],,,,4,,4qq6[2:1],,,,,,,,,,,,,,,,
4h[4:1],,,,6,,5,,3,,4,,6,,5,,6-8[8:1],,,,
5,,5h[4:1],,,,8,,8,,5,,5-3[8:1],,,,,,7-5[8:1],,,,1-3[8:1],,,,4,,4pp2[2:1],,,,,,,,,,,,,,,,
1h[4:1],,,,7,,8,,2,,1,,2,,7,,8-3[8:1],,,,
6,,6h[4:1],,,,3,,3,,4,,4-7[8:1],,,,,,1-4[8:1],,,,7-4[8:1],,,,3,,3qq7[2:1],,,,,,,,,,,,
6,,6,,6qq3[8:4],,,,,,,,,,,,1,,1,,2<7[8:1],,,,,,4-7[8:1],,,,1>4[8:1],,,,1qq6[8:5],,,,
1,,4,,4,,3,,3,,2,,2,,1pp4[8:4],,,,1,,8,,7,,7,,6,,6,,
5h[8:3],,,,,,4,,,,5>3[8:1]/6,,,,7>5[8:5]*qq8[8:5],,7,,,,,,,,,,,,,,,,
8h[8:3],,,,,,1,,,,2>4[8:1]/1,,,,8,,,,7<5[8:1],,,,8,,,,1>3[8:1],,,,4,,4h[4:1],,,,,,
5<3[8:7]*qq6[8:7],,,,,,,,,,,,,,,,,,,,,,,,
6,,6h[8:3],,,,,,5-3[8:1],,,,5/7,,7>5[8:6]*qq1[8:6],,,,7,,,,,,,,,,,,,,,,
8h[8:3],,,,,,4,,,,8<6[8:1]/4,,,,3<8[8:5]*pp1[8:5],,3,,,,,,,,,,,,,,,,
1h[8:3],,,,,,8,,,,1<7[8:1]/2,,,,3,,3-8[8:1],,,,,,5-7[8:1],,,,1-4[8:1],,,,8,,8>8[8:6]*qq3[8:6],,
,,,,,,,,,,,,,,,,,,,,
3h[4:1]/8,,,,4,,,,1/6h[8:1],,1-5[8:1],,,,,,6-2[8:1],,,,3<6[8:1],,,,8p5[8:4]*p5[8:4],,8<8[8:6],,,,,,
,,,,,,,,,,,,
4,,4,,8<1[8:9],,8h[8:10],,,,,,,,,,,,,,,,,,,,,,,,,,
6,,6,,1>8[8:9],,1h[8:10],,,,,,,,,,,,,,,,,,,,,,,,,,
3,,3,,8>6[8:9],,8h[8:10],,,,,,,,,,,,,,,,,,,,,,8h[16:1],,8h[16:1],,
6,,6,,8<2[8:5],,8h[8:4],,,,,,,,,,,,8,,8-5[8:1],,8,,1,,1-4[8:1],,1,,,,
6,,6,,4>6[8:8],,5h[8:10],,,,,,,,,,,,,,,,,,,,,,5,,5,,
3,,3,,4<2[8:6],,3h[8:9],,,,,,,,,,,,,,,,,,5-2[8:1]*-8[8:1],,,,,,,,
1<6[8:1],,,,1/2,,,,3v8[8:1],,,,3/4,,,,5>2[8:1],,,,5/7,,,,8<5[8:1],,,,1/8,,2,,
3/4,,3/4,,3<6[8:1]/4,,2/5,,,,
7,,7,,1>8[8:4]/8z4[8:2],,,,,,,,,,,,,,
1,,1-5[8:1],,,,1/3,,3-7[8:1],,,,3/6,,5,,4,,
4<1[8:3],,,,1,,1>5[4:1],,,,5<8[6:1],,,,2,,
2>5[8:1],,,,2,,1,,7-4[8:1],,,,7/8>8[16:7],,,,8,,,,,,,,
5,,5,,1,,8,,2/7-3[8:1],,,,4/7,,2,,2>5[8:1],,,,1/2,,8,,
7,,6,,1,,1-5[8:1],,5-1[8:1],,1>1[16:8],,,,7,,7>4[16:6],,,,
4,,5<8[8:1],,,,5,,,,4>1[8:1],,4<7[8:1],,,,4,,,,1,,2>5[8:1]/8,,,,
2,,8-4[8:1],,7,,6/8,,6-2[8:1],,,,3/6,,4,,5,,
5>8[8:3],,,,8,,8<4[4:1],,,,4V28[4:1],,,,7,,
7<4[8:1],,,,7,,8,,1>4[8:1]*<6[8:1],,,,1w5[8:1],,,,1>1[16:7],,,,,,,,,,,,
5,,5,,2>5[8:1]/6,,7,,8<5[8:1],,8,,1,,2,,3>8[8:1],,4,,3/7,,6,,5,,
8,,1/5,,2/6,,3/7,,
8qq5[16:12],,4>4[16:10]*>4[16:10],,,,,,,,,,,,,,,,,,,,,,
5w1[8:1]*w1[8:1],,,,5>1[8:1],,,,5,,
7-5[8:1],,,,1,,1,,4,,4,,3,,5<8[8:1],,4,,,,3,,3h[8:1],,,,7,,7,,
1,,1-5[8:1],,,,7<4[8:1],,7,,,,3,,3-7[8:1],,8>3[8:1],,8qq5[2:1],,,,,,,,,,,,,,4,,
4-2[8:1],,,,6,,6,,1,,1,,8,,2>5[8:1],,1,,,,7,,7h[8:1],,,,5,,5,,
6,,6-2[8:1],,,,4>1[8:1],,4,,,,7,,7-3[8:1],,1<6[8:1],,1pp4[2:1],,,,,,,,,,,,,,6,,
6-4[8:1],,,,2,,2,,3,,3,,1,,4<7[8:1],,8,,,,1,,1h[8:1],,,,8,,8,,
2,,2-6[8:1],,,,7<4[8:1],,7,,,,1,,1-5[8:1],,5>2[8:1],,5pp8[8:3],,,,,,,,,,,,1,,1,,
8<5[8:1],,4pp7[2:1],,,,,,,,,,,,2,,2V86[8:3],,,,6,,6V42[16:5],,,,2,,,,8,,8,,
7>2[8:1],,7,,6,,5,,4,,3<6[8:1],,3,,2,,1,,8>3[8:1],,8,,7,,6,,5-8[8:1],,5,,
{1}3b<3[8:54]*<4[384:324]*<5[384:648]*<6[384:972]*<7[384:1296]*<8[384:1620]*<1[384:1944]*<2[384:2268],
,,,,,,,,,
E
