&title=Made in Love
&artist=黒魔
&first=-1.7
&des=.-.. --- ...- .
&lv_5=14
&des_5=.-.. --- ...- .
&inote_5=
(88){4},,,,{1},
,{4},,,{16},,,{48}B6,
B5,B4,
{8}B3,,,C/B7,,,{4}E4/B4/B3,
{32},,,,,,,6,{96},,,,{24}5,,4,,3,,,{12}2,{24},1>2-4-6<7v1[24:19],{1},{16},,,{48}B3,
B4,B5,
{8}B6,,,C/B2,,,{4}B5/B6/E6,
{12},,,3,4,{48},{16}5,{48},,{24}6,{48},,,,7,,,,,,,,,8<7p5p3>2v8[48:79],{1},,{16},{48}E6,
B5,C,
{4}B2,{8}6,{48}5,,,,,4,,,,,,,{8}3,2,1,
{48},8,{4},{64},{5952},,,,,,,,,,,,,,,,,,,,,,,,,,,,,,,,,,,,,,,,,,,,,,,,,,,,,,,,,,,,,,,,,,,,,,,,,,,,,,,,,,,,,,,,,,,{31}D8,A8,D1,A1/B1,,,,,,,,,,,,,,,,,,{1}1x>1>1>1[4:7]*>5[24:7]*>1[12:7]*>1>5[8:7]*>1>7[48:49]*>1>1[6:7]*>1>1>3[16:21]*>1>1>5[24:35]*>1>1>7[48:77],
,Ch[24:1],
{4},,,{16},,,{48}5x,6x,7x,
{8}8pp2p5[4:1],3,2,1,,2>6[8:1],6<7q4[16:3],2,
{16},,,7h[16:9],,,{8}2pp5[4:1],,,,,4<5-7q3[4:1],
{16}6,6,,7,{8}8qq4[4:1],,,{4}2h[8:1],
{8}3-5<6-2[4:1],{16}5,5,,6,{8}7pp1<8pp2[4:1],{16},,,,,,4,5,
{8}6>3q8[4:1],3,2,1,,7<3[8:1],3>2p5[16:3],7,
{16},,,1h[16:9],,,{8}5pp6v1[4:1],,,,,2pp1[4:1],
{16}5<7pp8pp2<1[2:1],5,,,{8}5,,,{4}5h[8:1],
{8}8/7xh[4:7],6,5,4,3,2,1,8,
{24}D2,A1,D1,A8/B8,,,,,,,,,{4}4xqq3b[8:1],4bpp5b[8:1],
4b,{16}7h[16:1],B7,E1,{32}C,B5/B4,{8}5xh/4xh,{16}6,{32}5x,5x,{16}5x-1[8:1],{32}4,6,{8}3,
5xh,6,7x/4x-8[8:1],8,4,3,2x/8x<4[4:1],1,
8/1,2,{16},3,2,1,8>4qq3[4:1],7,6,5,{4}8xq6qq4<5[8:3],
{8}8,1,2x,3,5/4>3qq1>2[4:1],6,7x,8,
6<2[4:1],{16}5,{32}5,4,{16}6,3,4,5,6,3/7,4/8,5/1,{4}2-5>3-1[4:1]/6<8-4[4:1],
{8}6bx/2bx,,,3-7>1-4[8:3],5/4,5,6x,6,
{16}6-8-4[4:1],,,3,{8}3x-1p2-7[8:3],4,{16}3,,,6,{4}6x,
{8}7/4,6/3,5/2,4/1,7/1pp3[12:1],{24}4,3,8,{4}1,
1b-5b[8:13],{8}B3,B7,B3,B7,B3,B7,
B3/E3/B2,B7/E7/B6,B3/A3/E4/E3,A7/E7/B7/E8,D3/A3/E3/B3/A2/B2/E4/D4,E7/A7/D8/A8/B8/E8/B7/D7,{4}1xw5[16:1],
1b/B1/B8/B2/C,{8}B3,{16}B6/E6/B5,B8/E1/B1,{32}7-5>4-2-8[16:3]*<6-4>3-1<8[16:3],,,3,{16}4,8<3b[16:3],{4}7x/1xs5-7-3[4:1],
1x,{8}4,B3/B4/E4/C/B1/B6/B5/B2/E6/E2,{16}6,3,{32}5b,4b,5b,4b,{24}5b,B4/B3,B6/E7,B2/E2,{48},{16}E8/B3/B5/D2/B2/E2/B8/E5/A7/E7/B6/C`D8`B7`B4`E3`B1`A2,
,5,{8}2-5[16:1],B7/B8/E8,2b,{16}6h[16:3],5,4,3h[8:1],5,4,3,4,
5b/2b,{32}4,3,{16}6,7b/4b,{32}5,6,{16}2,3b/6b,{32}5,4,{16}7z3>8[16:3],4b/6b,{64}7x,6,5,4,2x,3,4,5,{4}7b,
{16}3,4,2b,{32}5,4,5,4,{16}6b,{32}5,4,5,4,{16}6,{32}3,3,{16}5<1[8:1],7,{32}1x,2x,3x,4x,{8}5x,
{16}6,{32}5,6,{16}3b,{32}4,5,4,5,{16}3b,{32}4,5,4,5,{16}3,{32}6,6,{16}4>8[8:1],2,{32}8x,7x,6x,5x,{8}4x,
{16}4b,{32}6,5,{16}7,4b,{32}6,5,{16}7,{8}4b,{32}2b,1,3,8,2b-5[16:1],1,3,8,2b,1,3,8,{8}2b,
,E6,E4,E6,E4,E6,E4,E6,
E4/B4/B3,B5/E6/B6,E4/B3/B4/A4/D4/A3,B5/E6/B6/A6/D6/A5,B3/B2/E3/A2/D3/A3,B7/E7/B6/A7/D7/A6,{4}B7/E7/B6/B2/E3/B3/Ch[24:1],
8b<8<8[8:13],B1/A1,B2/A2,B3/A3,
B4/A4,B5/A5,B6/A6,B7/A7,
{24}3,4,4,3,5,5,3,6,6,3,7,7,7x,4,4,7,3,3,7,2,2,7,1,1,
{32}1x,2x,3x,4x,8x,7x,6x,5x,{64}1b,2,3,4,5,6,7,8,1,2,3,4,5,6,7,8,{4}1bx<3[8:1],2x/1x-5[16:1],
{8}1b/4bxh[16:3]/B1f,{48}6,7,8,1,2,3,{24}4/8h[6:1],5,6,3,4,5,8>5[8:1],4,6,3,5,1,{8}7x/8x-4[16:1],7,
8b/5xh[16:3]/B8f,{48}3,2,1,8,7,6,{24}5/1h[8:1],4,3,6,5,4,8<3[8:1],4,5,3,6,5,{8}1x/8x-4[12:1],1,
8b/5xh[16:3]/B8f,{48}3,2,1,8,7,6,{24}5,4,3,6,5,4,3>7[8:1],5,4,6,5,4,{8}3x,{24}3,4,5,
6/8,1,5,4,{12}6,{24}2/4,5,6,4,{12}2,{48}1b/5,2,3,4,5,6,7,8,1,2,3,4,5/8b,7,6,5,4,3,2,1,8,7,6,5,
{8}4/1-5[12:1],{24}8,8,8,{8}1/8-4[12:1],{24}2,2,2,{8}2v5[12:1],{24}7,7,7,{8}7v4[12:1],{24}1,1,1,
{8}1bV35[12:1],{24}8,8,8,{8}8bV64[8:1],{24}2,2,2,{8}2b>5[12:1],{24}7,7,7,{8}7b,{24}2,2,2,
{8}5b/2b,{24}6/4,5,4,3/5,4,3,2/5,4,3,{4}4b/1bw5b[16:1]*s5-7-3[4:1],B1f/E1f/E2f,
{1}1bxv7<6-4-2<1b[3:2]*-7-5-3-1[3:2],
1bxv7<6-4-1b[3:2]*q7-5-3-1[3:2],
1bxqq7-5-3>1[3:2]*q7-4-2<1b[3:2],
1bx-6-4-1[3:2]*v7-4>3-1b[3:2],
{24}1-5[4:3],6,4,5,3,4,2,3,2,4,3,5,4,6,5,7,4,5,2,4,3,1b,,,8-4[4:3],
3,5,4,6,5,7,6,7,5,6,4,5,3,4,2,5,4,7,5,6,8b,,,{12}8x-5>3[8:11]*-4-1[8:11],
8x,8x,{24}8x,8x,{12}8x,{24}8x,8x,8x,8x,{48}8x,,,8x,,8x,,8x,,8x,,,8x,,,8x,,,{24}8x,
,8x,{48},,,8x,,,,,,8xh[8:1],{4},{16},,,{48},{4}8xw4[8:7],
{1},{24}1b/5,
4,3,5,4,6,3/7,4,5,7,4,3,2/5,4,5,3,6,2,8/4,7,5,1,5,2,
{32}8x/3x,7,6,5,4x/1x,2,3,4,5x/6x,7,8,1,2x/3x,4,5,6,1x-5b[16:1],4,2,5,3,6,4,7,{4}1b/8b,
E
