&title=【电棍】BOSS RUSH
&artist=DJGun
&first=0.02
&des=心白-HW
&des_4=心白-HW
&des_5=心白-HW
&lv_4=13
&lv_5=14
&inote_4=(190){4},,,,,,,,{1}5h[1:2]/4>6V82-4[4:13],
,,,4h[1:2]/5<3V17-5[4:13],
{4},,,,,,,,,,,,2h[1:3],
4,,4,
,5,,5,
,6,,7,
{2}8<5[4:1],1>4[4:1],
{4}7h[1:3],5,,5,
,4,,4,
,3,,2,
{2}1>4[4:1],8<5[4:1],
{8}4,4,4,4,5,5,5,5,
3,3,3,3,6,6,6,6,
2,2,2,2,7,7,7,7,
{16}1x,2x,3x,4x,5x,6x,7x,8x,1x,2x,3x,4x,5x,6x,7x,8x,
{4}1V35[2:1],7,7,7,
8V64[2:1],2,2,2,
{8}1,1,8,8,{16}1,8,1,8,1,8,1,8,
{4}1<5[4:1]*>5[4:1],,,C,
7/5,7h[4:5]/5-1[12:1],,2-4[12:1],
,5-1[12:1],,3/8,
2/4,2h[4:5]/4-8[12:1],,7-5[12:1],
,4-8[12:1],,6/1,
7/2,7h[2:3]/2>4[12:1],,5p1[12:1],
,8qq2[8:3],,,6<1[8:1],
{8}4,4>1[8:1],,5,{4}5-1[8:1],
{2}2-4[8:1]*-6[8:1],5-7[8:1]*-1[8:1],
{4}8qq5qq2[2:3],1,,1,
,1,,1,
1pp4pp7[2:3],8,,8,
,8,,8,
8-5[8:1],{8}4,4-1[8:1],,5,{4}5-8[8:1],
{8}2-6[8:1],2,7-3[8:1],7,{2}5-8[8:1]*-2[8:1],
{8}3,3,5,5,4,4,6,6,
1,1,8,8,2,2,7,7,
{2}1h[4:1],{8}2/8,3/7,4/6,5-8[8:1],
,4qq2[8:1],,5,,6,3,6,
5h[4:3],,,4v2[4:1],,,,,4h[4:3],
,,5v7[4:1],,,,,{2}8h[4:1],
{8}7/1,6/2,5/3,4-1[8:1],
,5pp7[8:1],,4,,3,6,3,
2h[4:3],,,7qq6[4:1],,,,,{1}1w5[2:1],
6h[1:2],
,5h[1:2],
,4h[1:2],
,3h[1:1],
{2},C/E7/E3,
{8}8x/7x,6,5/4,3,1/2,8,7/5,6,
2/4,1,8/7,6,{4}3/5-1[8:1],2,
{8}1x/2x,3,4/5,6,8/7,1,2/4,3,
{16}6x,5,6,5x,6,5,7x,4,7,4x,7,4,8x,3,8,3x,
{4}8bx-4pp6[2:1],1,1,1,
1bx-5qq3[2:1],8,8,8,
{8}7/2,7/2,1/8,1/8,{16}7,2,7,2,8,1,8,1,
{2}8x>1s5[12:1]*-5[12:1],5x-8[12:1]/4xz8[12:1],
{8}2b/4b,3,7/5,6,2/4,3,7/5,6,
4/2,5/3,{4}4-8[8:1]/6-2[8:1],{8},,,,7/5,
6,2/4,3,7/5,6,2/4,3,
7-5[8:1]/5-3[8:1],5/7,,,2-4[8:1]/4-6[8:1],4/2,,,7/5,
6,5/3,4,7/5,6,5/3,4,
7qq5[4:1],7,{4}5qq3[4:1],{2}4h[4:1],
3v8[8:1]/5v8[8:1],{8}7v4[8:1]/1v4[8:1],1/7,,,{4}5<7[8:1],
4-2[8:1],8p4[8:1],1b,
5/2h[4:7],E6/B6,8,E8/B7,
5,E6/B6,8,E8/B7,
1/6h[4:7],E2/B2,4,E4/B3,
1,E2/B2,4,E4/B3,
{8}4/5,6,5/4,3,4/6,7,5/3,2,
6-1[8:1],4,{4}4,{8}3-8[8:1],5,{4}5,
1>4[4:1],4<7[4:1],{2}7>2[4:1],
{4}5<8[4:1],8>3[4:1],{2}3<6[4:1],
1h[4:1],{8}1/8,2/7,3/6,4-2[8:1],
,5v7[8:1],,4,,3,6,3,
7-4[8:1],7,3-8[8:1],3,5,5,{4}6/1,
{8}2-5[8:1],2,6-1[8:1],6,4,4,{4}3/8,
{2}8h[4:1],{8}8/1,7/2,6/3,5-7[8:1],
,4v2[8:1],,5,,6,3,6,
3v8[8:1],3,7<4[8:1],7,1,1,{4}2/5,
{8}6v1[8:1],6,2>5[8:1],2,8,8,{4}7/4,
{8}2,2,1,3,7,7,8,6,
2,2,1,4,7,7,8,5,
3,3,1,4,6,6,8,5,
3,3,1,2,6,6,8,7,
2-4[8:1],2,8-6[8:1],8,1-3[8:1],1,7-5[8:1],7,
4-2[8:1],4,6-8[8:1],6,3-1[8:1],3,5-7[8:1],5,
{1}4qq8[2:1]*pp8[2:1],
{16}1x,2,3,8x,7,6,2x,3,4,7x,6,5,3bx,4bx,5bx,6bx,
E
&inote_5=(190){4},,,,,,,,{1}3bV17-2[2:7]/7bV53-6[2:7],
,,,3>7q3[2:7]/7<3q7[2:7],
{4},,,,,,,,,,,,4h[8:5],
6,,6,
6h[8:5],2,,2,
2h[8:5],8,,8,
8h[2:1],4-1[8:1],4-7[8:1],4,
1h[8:5],7,,7,
7h[8:5],3,,3,
3h[8:5],5,,5,
5h[2:1],1>4[8:1],1<6[8:1],1,
{8}4h[8:15],5,5,5,5,5,5,5,
6,6,6,6,7,7,7,7,
8h[8:7],4,4,4,3,3,2,2,
{16}7,6,5,8,7,6,2,3,4,1,2,3,8,7,6,5,
{8}4h[4:1],1,2,3,4h[4:1],5,6,7,
8h[4:1],3,2,1,8h[4:1],7,6,5,
4/8,5/1,6/2,7/3,{16}4,5,6,7,8/4,1/5,2/6,3/7,
{8}4h[4:1]/8-4[16:9],,,8-4b[8:1],,8b,,,{4}5h[8:3],
{8}2,2>4v1q5[8:3],{2}6h[2:1],
{8},7,{4}7h[8:1],7-5[8:1],7,
4h[8:3],{8}7,7<5v8p4[8:3],{2}3h[2:1],
{8},2,2h[8:1],6h[8:3],{4}2-4-2[16:3],2,
5h[8:3],{8}2,2>4v1q5[8:3],{2}6h[2:1],
{8},7,7h[8:1],2h[8:3],{4}7-5[8:1],7,
3-1[8:1],{8}3,8-4[8:1],,8-6[8:1],3,8v5[8:1],
5,8,{4}4-2[8:1],{8}4v1[8:1],5,{128},C,{16},,,{64},,,{4}5h[8:3],
{8}2,4v3-1[8:3],{2}6h[2:1],
{8},7h[4:1],{4}2h[8:1],7-5[8:1],7,
4h[8:3],{8}7,5v6-8[8:3],{2}3h[2:1],
{8},2h[4:1],{4}7h[8:1],2>5[8:1],2,
7-1[8:1],{8}7,2-6[8:1],,2-4[8:1],8,2-6[8:1],
5,2-4[8:1],4V28[4:1],2-6[8:1],,,,,1-5[8:1],
7-4[8:1],1,7,2-5[8:1],8-4[8:1],2,8,
2-4[8:1],7-5[8:1],2-5[8:1],7-4[8:1],2-6[8:1],7-3[8:1],2,7,
2h[4:1],,,2h[8:1],6,6/2h,6/2h,7/2h[8:1],
,7/2h[8:1],,8/2h[8:3],,7,7,7,
6/2h[4:1],6,6,2h[4:1],{4}7,{8}6/2h[8:1],7,
8/2h[4:1],8,8,2h[4:1],{4}7,6/2h[8:1],
{8}3/7h[4:1],,,7h[4:1],3,3,3/7h[8:1],2,
,2,,1/7h[4:1],,2,2,2,
3/7h[4:1],3,3,7h[4:1],{4}2,{8}7h[8:1]/1-5[8:1],1,
{1}1xw5[2:1],
Ch[1:1]/4p6V82[2:3],
,Ch[1:1]/6-1-3-8[2:3],
,Ch[1:1]/2-8q5-3[2:3],
,Ch[1:1]/8V64-7-1-5[2:3],
{8},,,,,,,,6x/5x,
8/1,8/1,4x/3x,8/1,8/1,3x/6x,8/1,
6x/5x,8/1,4x/3x,8/1,5x/4x,8/1,{4}3xh[8:1]/6xh[8:1],
{8}7x/8x,5/4,5/4,1x/2x,5/4,5/4,2x/7x,5/4,
{16}3,4,3,6,5,6,2,1,2,7,8,7,1,2,3,4,
{1}5>7b[2:3]/1<3b[2:3],
{8},,,,,,,,8/4,
5/1,6/2,7/3,{16}2,8,2,8,1,1,1,1,
{8}1-6[8:1]*-4[8:1],8/2,{4}1w5[8:1],{64}1b,Cf,{4},{16},,,{32},{4}2pp8[4:1],
{8}2,7-4[8:1],,7-1[8:1],2,3/7-4[8:1],
5,3/7,{4}2-5[8:1],2,{16}4x,5x,6x,7x,
{4}8-6[8:1],{8}8,4>2[8:1],,4q8[8:1],7,4v1[8:1],
6,4,{4}8-6[8:1],{8}8v3[8:1],5,{4}8,
2p8[4:1],{8}2,7<4[8:1],,7-3[8:1],2V48[4:1],7,
2,1,{4}1-5-7[4:1],{8}1,2,{4}2V48[8:3],
5-7[8:1],5,{8}1-5[8:1]/2-4[8:1],3/8,{4}2/1,
3v5[8:1]/7v5[8:1],7-1[8:1]/3-1[8:1],7/3,{192}B2/B8,,,,,B7,B3,,,,,B6,B4,,,,,E6,{32}E5,,,,,{4}6xpp1[12:19]/5x-2[12:1],
5,2-5[12:1],2,
5>2[12:1],5,2,{24}2b,3x,4x,5x,,,{4}1xqq6[12:19]/5x-3[12:1],
5,2-4[12:1],2,
5-1[12:1],5,2-6[12:1],2,
7v5q1[4:1],{8}7,2V46[8:1],,2-6[8:1],7V51[4:1],2,
7,8,{4}8-4-2[4:1],{8}8,7,{4}7h[8:1],
{8}7-4[8:1],2-5[8:1],7,2,8<5[8:1],1>4[8:1],8,1,
8-4[8:1],1-3[8:1],8-6[8:1],1-5[8:1],8-4[8:1],1-3[8:1],8V64-2b[8:3],1,
{2}8b,{8}1,1>4[8:1],1,1<6[8:1],
,1-5[8:1],,1,,6,3,5,
2-4[8:1],3,7-3[8:1],6,2-5[8:1],1,6-8[8:1],7,
3,4,3/5V74-8[8:3],6,1,1,{4}1V35-7b[8:3],
{2}1b,{8}8,8-5[8:1],8,1/8-2[8:1],
,7/8-4[8:1],,8/4,,5,1>4[8:1],5,
1<6[8:1],8,1-3[8:1],2,1-7[8:1],8,1-4[8:1],2,
1-6[8:1],8,1-3[8:1]*-4[8:1],2,{4}1-6[8:1]*-7[8:1],1,
{8}4,4/5,4,4/6,4,4/7,4,4/8,
4,4/1,4,4/8,4,4/7,4,4/6,
5,5/4,5,5/3,5,5/2,5,5/1,
5,5/8,5,5/1,5,5/2,5,5/3,
5/4,5/4,3/6,6/3,2/7,2/7,8/1,8/1,
1/8,1/7,1/6,1/5,1/5,2/5,3/5,4/5,
{16}4,5,4,5,3,6,3,6,2,7,2,7,1,8,1,8,
{32}2x,3x,4x,5x,,,8x,7x,6x,5x,,,1x,2,3,4,,,7x,6,5,4,,,1bx,2b,3b,4b,{8}5b,
E
