&title=Wing my Way
&artist=KOTOKO
&first=0
&des=Kondou
&clock_count=4
&lv_5=13+
&inote_5=(118.04){1},
{16}
2h[16:3],,,4h[16:7],,,3h[16:6],,,,,,,,,,
7h[16:3],,,5h[16:7],,,6h[16:6],,,,,,,,,,
1h[16:3],,,3h[16:3],,,2h[16:6],,,,1,,1,,,,
8h[16:3],,,6h[16:3],,,7h[16:6],,,,8,,8,,,,
15,,,15,,,1h[16:6]/5h[16:6],,,,,,,,,,
37,,,37,,,3h[16:6]/7h[16:6],,,,,,,,,,
2h[8:3]/6,,,,,,4,,4h[8:4]/3h[8:4],,,,,,,,
,,23,,,23,,,76,,,76,,,81,,
8b<1[8:4]/1b>8[8:4],,,,,,,,,,,,,,,1,
1,,,2,,,3h[8:2],,,,,,,,45,,
4qq5[8:4]/5,,,,,,5,,,,6,,,7,,8,
8h[8:2],,{32}1,2,3,4,5h[8:1],,,,8,7,6,5,4,3,2,1,8,7,6,5,4,3,2,1,8,7,6,5,
{16}4b/3b-8[8:1],,,,6,,7,,8-6[8:1]/1-5[8:1],,,,81,,,,
6-2[8:1]/4,,,,2,,3,,1^6[8:1]/4^1[8:1],,,,1/4,,,,
1h[8:2],,,,4,3,5,4,6h[8:1],,2,4,3,5,4h[8:1],,
1,2,1,2,7,3,7,3,8,1,8,1,6,2,6,2,
7b-4[8:1],,,,4,,3,,2-5[8:1]/4-8[8:1],,,,24,,,,
8/5p1[8:1],,,,56,,7,,8^5[8:1]/1^4[8:1],,,,81,,,,
2h[8:1],,4,3,5,4,6,5,7,5,8,4,1,3,1h[8:1],,
2,8,2,8,3,4,3,4,1,7,1,7,5,6,5,6,
7b/4b,,,,,,3,4,3^1[8:1],,,5,,,5,,
6^8[8:1],,,4,,,4,,3p6[8:1],,,,,,8,,
7h[8:2]/5h[8:2],,,,,,6,,54,,3,,46,,7,,
6/2pp8[8:2],,,,5,,6,,7-4[8:1],,,,71,,1,,
6b/3b,,,,4^1[8:1],,4,,8q4[8:1],,7,,6,,5,,
6/3h[8:2],,,,5-8[8:1],,5,,1-5[8:1],,2,,3,,4,,
3,4,2h[8:1],,5,4,6h[8:1],,5>8[8:2],,,,6,,6,,
7,,71,,2,,28,,6,6,5h[8:1],,1,3h[8:1],,7,
1b,,,,53,,2,4,1^4[8:1],,,8,1,,7,,6-1[8:1]/2
,,,5,6,,3,,7h[8:2]/2>5[8:1],,,,,,8,8,
3h[8:2],,,,,,6,,75,,3,,24,,6,,
8/5V31[6:1],,,6,5,,7,,8-3[8:1],,,,8/1-6[8:1],,,,
8b/1b,,,,2-5[8:1],,2,,6-2[8:1],,7,,8,,7,7,
1h[8:2],,,,4q8[8:1],,4,,1q5[8:1],,2,,3,,4,4,
6,5,7h[8:1],,3,4,2h[8:1],,1<4[16:3],,,,3,,2,,
1-5[8:1]*-3[8:1],,,,1b-4[8:1]*-6[8:1],,,,1b-7[8:1]*-5[8:1],,,,1b,,,,
6b/2b,,7,7,5h[8:1],,8,8,6v3[8:1],,6,,1^6[8:1],,1,,
4b,,2,2,4h[8:1],,1,1,3v6[8:1],,3,,8^3[8:1],,8,,
8^5[8:1]/4,,,,8-3[8:1]/4,,,,8-5[8:1]/4,,,,8/4qq6[8:2],,,,
54,,6,,7,,8,8,2h[16:2],,4,3,4,,25,,
1b/6b,,7,7,4h[8:1],,1,1,6^3[8:1],,8p4[8:1],,6,,8,,
1b,,2,2,5h[8:1],,8,8
,3^6[8:1],,1q5[8:1],,3,,1,,
8bp4[8:1],,7,,2q6[8:1],,1,,1p5[8:1]/2,,8,,3q7[8:1],,2,,
34,,5,,61,,2,2,8h[8:1],,6,7,5,,64,,
3b/5bpp4[8:2],,,1,1,,2,,3^8[8:1],,4,4,3,,6,,
5b-1[8:1],,4,4,5,,2,,3b-7[8:1],,6,6,3,,4,,
8b,4,2,6,1,5,3,7,2,6,4,8,3,7,5,1,
4b>5[8:2],,,,,,,,8,,,71,,,62,,
5b-1[8:1]/3b,,5/1V74[16:2],51,,,,,2-6[8:1],,2/6V41[8:1],26,,,,,
7,,82,82,,5/4,5bpp4[8:2]/4b>5[8:2],,,,,,,,,,
1/2q7[8:1],,,5,5,,4,,1-5[8:1],,5-1[8:1],,1V38[16:3],,,,
6b<3[16:3],,,,,,,,4,,54,,63,,2,2,
8b-5[8:1],,,,8/3-6[8:1],,3,,1-6[8:1]/3,,1,,2-5[8:1]/1,,2,,
2b/4b>5[16:4],,,,2p1[16:4],,,,,,4,,5,,6,8,
7h[8:1],,3,4,2h[8:1],,6,5,6h[8:1],,4,,5/3,,24,,
1s5[16:3]/3,,,8,8,,7,,6,4,5,2,8b,,4,6,
1bq5[8:1],,5qq3[8:1],5,1,,7,,8^5[8:1],,5V37[16:3],5,8,,2,,
1,,2,2,4-1[8:1],3,3,,5,5,,6,62,,3,,
8qq8[16:3]/4,,,1,8,,2,,3^6[8:1],,6p1[8:1],,3,,1,,
7b-2[8:1]*q4[8:1],,,,7,,,,3,3,5h[8:1],,7,,68,,
7b/1b^4[8:1],,,,1/5-2[8:1],,5,,6-1[8:1]/5,,6,,7<2[16:3]/6,,7,,
7b/2b>8[32:7],,,,8V25[16:3],,,,,,4,,3,,2,2,
4,3,4,3,5,4,5,4,6,5,6,5,7,5,8,5,
1,4,1,4,7,2,7,2,5,8,5,8,7,7,3,3,
1b^6[8:1],,,,4^1[8:1],,,,5,,5,,5pp4[8:2],,,,
5/1,,,,2,,2-5[8:1],,,,6,,6pp4[8:2],,,,
6/2,,,,3,,3-8[8:1],,,,7,,7h[8:2],,,,
5,6,5,6,3,4,3,4,1,1,5,5,3,3,7,7,
8b^3[8:1],,,,5^8[8:1],,,,4,,4,,3qq6[16:5],,,,
3/7,,,,8,,8-5[8:1],,,,2,,2h[8:2],,,,
4,3,4,3,6,5,6,5,8,4,6,2,7,1,7,1,
5,5,4,4,7,7,2,2,1,1,5,5,7,7,3,3,
2b/4b<4[8:14]*>4[8:14],,,,,,,,,,,,,,,,
,,,,,,,,,,,,,,,,
