&title=Fracture Ray
&artist=削除
&first=0
&des=Jinsokyo2
&lv_5=14+
&inote_5=(100)
{1},,5h[1:2]/4h[1:2],,{64},6/3,7/2,8/1>8[2:7],{16},,,{4},{2}7,6,,1,2,3,,4qq8[2:1],
{8}5,,7,6,5h[8:1],4h[8:1],3h[4:1],,1h[4:1],,8,7/2,6pp4[2:1]/3,,,,2,,1,8/2,
7h[4:1]/3h[4:1],,,{16}6/2,5/3,{4}4w8[8:1],4,{2}7-3[4:1],6-2[4:1],5-1[4:1],4-8[4:1],
3-7[4:1],2-6[4:1],1s5[4:1],{4}8<4[16:1]*>4[16:1],8b,{16}6h[16:1]/5-1[16:1],4h[16:1],
7h[16:1],3h[16:1],5,,,,7-3[16:1]/8,1s5[8:1],7/8,6,7/8,,,,6<1[16:1]/4>1[16:1],5,4/2,3,
6/4,,,,1-5[16:1],8,7-4[16:1]*-2[16:1],6,5/1,,7,,{32}5-1[16:1],4,3,2,1w5[16:1],8,7,6,
{16}5/4,,,,7s3[8:1]/2z6[8:1],8,7/2,1,7/2,,,,5/4,3,5-1[16:1]/4-8[16:1],6,{48}3,2,1,8,
7,6,{16},,7-4[16:1]/3-8[16:1],7,6-1[16:1]/2,2-5[16:1],7>6[4:1]/3,,6,2,,,,,1b,,7/3,
6/2,8s4[8:1]*z4[8:1],7/1,6/2,5/3,,,,,5/1-4[16:1],2,3,4,5-8[16:1]/1,6,7,8,5/1,2,3,4,
6/5,7/8,1/2,4/3,{48}6-2[16:1],7,8,1,2,3,6,7,8,1,2,3,{16}6/4h[4:1],,,,1w5[16:1],8,7/3,
2,1,,,,3h[4:1],2,1,8,7h[16:3],6,5,4,7/3,1,1,7/3,,,5/4,5/4,6/3,,8-4[16:1]/1,2-6[16:1],
6/3,7,8/1,2,,5,6/4,7/3,{64}1,8/2,7/3,6/4,{16}5h[8:1],2,2,{32}6,5,7-4[16:1],,
3-7[16:1],4,{16}2,5/1,7,3,,6/1-5[16:1],{48}7,8-3[16:1],7,8,,,6/1,,,{40}1,,,8,,{32},,,
,4,5,3,6,4-8[16:1],5,3,6,{16}2,1/3,8/4,,7/1,{48}7-3[16:1],6,5,1,2,3,8/4,,,8,,,3,2,1,
{24}8,,,5h[16:1]/1h[16:1],,,,5-1[16:1]/1,2,7/3,,6/4,,5/3,,2-5[16:1],{48},7,6-1[16:1],
5,4/3,,,3,{24},2,,6,,4,4,5h[8:1]/3,,,{48}6,7,8,1,2,3,{32}7/4,,7,,1,8,1,8,
{20}1s5[8:1]*-5[8:1],5,3,7,5,{16}1,,,,4/3,2,6/5,7,{20}1h[20:1],8h[20:1],7h[20:1],
6h[20:1],5h[20:1],{28}1-5[16:1],4,8,3,7-2[16:1]*-4[16:1],2,6,{4}1,{48}5-1[16:1],6,7,
8-4[16:1],1,2,3-7[16:1],4,5,6-2[16:1],7,8,{8},,1h[8:1],{64}8,7,6,5,4,3,2,1,
{8}8h[8:1],{64}2,3,4,5,6,7,8,1,{8}2h[8:1],{64}7,6,5,4,3,2,1,8,3/7,6,5,4,3,2,1,8,4/7,
6,5,4,3,2,1,8,{16}7/5,4w8[8:1],5/3,6/2,{8},,2-6[8:1],6<5[8:3],,,,8,8,,7-3[8:1],
3>4[8:3],,,,1,1,,2>5[8:1],5<3[8:3]*-1[8:1],,,,4,{4}4,{2}5w1[8:5],,7qq4[2:1]/3h[2:1],
{8},3,2,1,{4}6<2[4:1]/1,2>8[8:3],4h[2:1],,1p5[4:1],3,8q4[4:1],6,5>1[4:1],1<5[4:1],
{2}5p1[8:1]*q1[8:1],2pp5[2:1]/6h[2:1],{8},6,7,8,{4}3>7[4:1]/8,7<1[8:3],5h[2:1],,
8V24[4:1],6,8V64[4:1],2,1h[4:1],5h[4:1],{8}8h[2:1],4h[8:3],,,{64},
5V38[8:1]/1V74[8:1],6/2,7/3,{16}8/4,,,5/1,,,,5/1-5[16:1],6,7/3,2,5/1,,{32}8,8,8,8,
{16}7V51[8:1]/1h[4:1],,,,7,2,3,4,5-7[16:1]/1-5[16:1],8,7-3[16:1]/3,6,5/1,,,,
{48}2z6[8:1],3,4,8,7,6,1,2,3,7,6,5,{16}2,,,,5V37[8:1]/3V51[8:1],4,6/2,4,,,,,8/2,2,
7/1-5[16:1],7,{48}1,8,1,8,1,8,{16}1,,2-5[16:1]/6-1[16:1],2,3-8[16:1]/7,7-4[16:1],
2<3[4:1]/6,,3,7,,,,,8b,,1/2,6/5,3s7[8:1],4/2,5/1,6/8,7<3[8:1]*>3[8:1],,,,7,,,,
7V15[8:1]/4V26[8:1],{32}6,5,6,5,{16}6,7/4,,,,4/3,1/2,7/8,6/5,{48}5/4-8[16:1],3,2,1,8,
7,6/3,2,1,8,7,6,{16}5h[4:1]/4,,,,7V14[8:1]*V52[8:1],6/8,7/1,8/2,7,,,,4/3,5,6,7,8/1,2,
3,4,6/5,7,8,1/2h[4:1],,,4pp7[4:3],4qq1[16:11],{1},{8}8h[8:1]/2h[8:1],,
7h[8:1]/1h[8:1],,6/2,7v1[16:1]/3v5[16:1],8/4,,6-1[16:1]/8,{16}5/3,2-5[16:1],6,3,7,2,
8q4[16:1]*V24[16:1],7/6,6/5,5/4,,,{64}5,4,3,2,1,8,7,6,{32}5/4,,2-8[16:1],4,3-7[16:1],
,7,5,{16}6,2,3,,6/2>5[16:1],{48}1,8-4[16:1],1,{16}8,7/3,{40}1/2,,,8,,{32},,,,3,7,2,6,
3-6[16:1],7-2[32:1],2,6,{16}5/1,6/2,7/3,,8/4,{48}2-6[16:1],3,4,8,7,6,5/1,,,1,,,6,7,8,
{24}1,,,4h[16:1]/8h[16:1],,,,8/4,8/4,2/6,,3/5,,4/6,,{48}7/2,,,8/1,7/2,6/3,5/4,,,5/4,
6/3,7/2,{32}8-4[16:1]/1,,3,4,2,5,1,6,7-3[16:1]/8,,,,{48}6,5,4,8,1,2,{32}7,,1,,5,5,
6/4,,{40}1-5[16:1]/2,,1/2,,1/2z6[8:1],,1/2,8,7,6,{16}5/1,,,,5-1[16:1],1/2-4[16:1],
4-6[16:1]*-8[16:1],7/8,5,2,,,{28}1-5[16:1],6,2,7,3-6[16:1]*-8[16:1],8,4,{8}1,3,
{32}5-1[16:1]/1,6/2,7/3,8/4,{64}1,2,3,4,5,6,7,8,{16}5/1,,7/3,7/3,6/4,,{32}1,1,1,1,
8/2,,,,8,7,6,5,2,1,3,8,4,7,5,6,8,7,3,4,2-6[16:1],1,5-1[16:1],6,{16}7/4,3,2,5,,,,,
1b,2,3,4,,8,7,6,,4,3,2V85[1:1],,5,6,7-3[4:3],
E
