&title=Luv Master
&artist=EmoCosine
&first=0.015
&des=9V_Y2-6
&lv_5=13+
&inote_5=(161){4},,,,,,,
{8},,48,7h[8:4],,5,,5,4,3,2h[8:5],4,,4,,4,5,6,7h[8:5],5,,5,,5,4,3,
{16}2h[16:3],,,4h[16:3],,,3q5[4:1],,,,6,,6,,,,
{8}8,5h[8:5],,8,,7,6,5,4h[8:5],1,,1,,2,3,4,5h[8:1],7,4h[8:1],6,3h[8:1],5,2-4[8:1],4,
{16}2/5h[8:1],,,6h[8:1],,,7V51[4:1],,,,5,,4b,,,,83,,2,1h[16:5],,,3,,3<5[8:1],,8,,7,,,,16,,7,8h[16:5],,,6,,6>4[8:1],,1,,2,,,,38,,2,1h[16:5],,,3,,3<5[8:1],,8,,7,,6,,25,,4,3,,,5/2>5[4:1],,,,8,,8b,,,,16,,7,8,,,6h[16:4]/5,,,,5,,7,,4,,38,,2,1,,,4/3h[16:4],,,,4,,2,,5,,16,,1,,27,,2,,38,,3,,41,,4,,4h[16:3]/8,,,6,,,3/7V51[4:1],,,,2,,2b,,,,38,,38,,7,5,6,,3h[16:3],,,4,3,,25,,16,,16,,2,4,3,,6h[16:3],,,5,6,,47,,38,,38,,7,5,6,,3h[16:3],,,4,3,,25,,16,,16,,2,4,3,,7<4[8:1]/3>8[8:1],,,,,,,,
{8}1,1,34,34,7,7,34,34,2,2,45,45,8,8,45,45,
{12}2,3,4,6,7,8,1,2,3,5,6,7,4bz8[2:1],,,
{8}6h[2:1],,,,,,
{16}7/1v7[8:1],,,,2h[16:4],,,,8h[16:3],,,5h[16:3],,,7,6,3/5v7[8:1],,,,2h[4:1],,,,8h[16:3],,,5h[16:3],,,7,6,5/3v1[8:1],,,,6h[4:1],,,,2h[16:3],,,4h[16:3],,,2,3,46,,7,,35,,2,,6-1[8:1]/4-6[8:1],,,,46,,,,8/5v3[8:1],,,,7h[4:1],,,,2h[16:3],,,4h[16:3],,,3,4,5v7[8:1],,,,2h[4:1],,,,8h[16:3],,,5h[16:3],,,6,5,4v2[8:1],,,,7h[4:1],,,,1h[16:3],,,4h[16:3],,,2,3,46,,7,,35,,2,,2-5[8:1]/6-1[8:1],,,,26,,,,8-5[8:1]/5,,8,,3,,,,1-4[8:1],,,6,1,,7,,5/8-5[8:1],,8,,3,,,,1-4[8:1],,,6,1,,7,,.5/8-5[8:1],,8,,3,,,,1-4[8:1],,,6,1,,7,,58,,6,,14,,3,,7-5[8:1]/5-8[8:1],,,,,,,,4/1-4[8:1],,1,,6,,,,5/8-5[8:1],,,3,8,,2,,4/1-4[8:1],,1,,6,,,,8-5[8:1]/5,,,3,8,,2,,4/1-4[8:1],,1,,6,,7,,5/8-5[8:1],,,3,8,,2,,
{32}1b,2,,,4h[16:1],,,,8b,7,,,5h[16:1],,,,1bw5[8:1],2,,,
{8},1,,7b/3h[4:1],,4,,
{16}25,,,6,,,5,,3h[4:1]/7,,,,4,,,,25,,,6,,,4,,3h[4:1]/7,,,,4,,,,25,,,6,,,3,,3h[4:1]/7,,,,4,,,,2-5[8:1]/5-1[8:1],,,,,,,,
8qq5[8:5],,8,,,,
{8}4,,3,,2,1pp4[8:5],1,,5,,6,,7,8,8,5,5,7h[8:1],4,12,8,
{16}7h[16:3]/5,,,3,,,2h[16:3]/4,,,6,,,57,,8,,4qq4[4:1]/8,,,,6h[8:3],,,,,,5,,47,,,,
{8}1/5pp5[4:1],,3h[8:3],,,4,25,,8/4qq4[4:1],,6h[8:3],,,5,47,3,
{16}15,,4,3-5[8:1],,,8h[16:3],,,,7,,6b/5b,,4,,35,,35,,1,,1,,35,,35,,7,,7,,46,,46,,2,,2,,46,,46,,8,,8,,
{12}2,3,4,6,7,8,1,2,3,5,6,7,
{16}4qq1[8:4],,,,7qq5[16:4],,,,,,,,,,,,2b-6[8:1]/4b,,,,,,,,7h[8:1]/5h[8:1],,,6h[8:1]/4h[8:1],,,53,,5b/3b-7[8:1],,,,,,,,6h[8:1]/8h[8:1],,,1h[8:1]/7h[8:1],,,82,,2b/8b-4[8:1],,,,,,,,3h[8:1]/5h[8:1],,,2h[8:1]/6h[8:1],,,17,,8-5[8:1],,1,,2-6[8:1],,3,,4-8[8:1],,,,5h[4:1],,,,
{32}1w5[8:1],2,3,4,,,,,1b,,,,
{8},7h[8:1]/3h[8:1],
{16},56,,,3,4,2pp4[8:1],,,,7b/2,,,,2h[8:1]/6h[8:1],,,34,,,6,5,7qq5[8:1],,,,2b/7,,,,2h[8:1]/6h[8:1],,,34,,,6,5,7h[8:1],,4b,,3h[8:1],,4b,3b,5h[16:3],,,2b,2b,,37,,8b<5[8:1],,,4,8>3[8:1],,4h[8:1],,8,,,4,4h[8:1],,6,,7b<4[8:1],,,3,7>2[8:1],,3h[8:1],,7,,,3,3h[8:1],,4,,2b>5[8:1],,,6,2<7[8:1],,6h[8:1],,2,,,6,6h[8:1],,5,,47,,6,,25,,43,,5/2h[16:3],,,8,1,,7,,1b>4[8:1],,,5,1<6[8:1],,5h[8:1],,1,,,5,5h[8:1],,3,,2b>5[8:1],,,6,2<7[8:1],,6h[8:1],,2,,,6,6h[8:1],,5,,7b<4[8:1],,,3,7>2[8:1],,3h[8:1],,7,,,3,3h[8:1],,4,,
{32}2b,3,,,5,,4,,7,6,,,4,,5,,
{12}3b,4,5,
{16}6h[4:1],,,,5b-1[8:1]*-2[8:1],,,,,,,,38,,,56,,,34,,2-5[8:1]/5-1[8:1],,,,,,,,8,7,6,5,34,,2,,1-5[8:1]/6-1[8:1],,,,,,,,4,3,2,1,78,,6,,15,,3,4,,,5/2>5[4:1],,,,7,,8h[8:1],,,,7b,6,5,4,2,4,2,4,2b,3,4,5,7,5,7,5,7b,6,5,4,38,2,1,8,4b,3,2,1,85,7,6,5,4b/8b,,48,,3b/7b,,37,,2b/6b,,26,,1b,5b,{24}2,3,4,5b/6b,,,
{16}8,2b,,,3b/7b,,6b,5,4,,1b-5[8:1],,5w1[8:1],,,,
&inote_6=(161){4},,,
,,,,
{8},,7pp4[4:5]/4,,3,,,,3,,,,3,,,,3,,2qq5[4:5],,5,,,,6,,,,6,,,,6,,7V51[2:1],,5,,4,,3,,2V48[2:1],,4,,5,,6,,7,7,2,2,
{16}8,1,8,1,8,1,8,1,8h[16:3],,,3,4,,5>2[8:1]/6,,,,7,,7b,,,,6,,6,,5,,7,5,,
