&title=もうどうなってもいいや
&artist=星街すいせい
&first=0.378
&des=Kurage
&lv_5=13
&inote_5=(134)
{1}1-4[8:5],8-5[8:5],1-4[8:5],{4}5<4[4:2],{16},Ch[16:7],,,{4},,
{8}3b/6b,2,{16}3,4,1,5,3h[8:1],,4,2,,,45,,
{16}6,5,7,,6,5,8,4,6h[8:1],,5,7,,,36,,
{8}36,{16}4,5,3,4,2,,36,,7,5,,2,4,,{16}1,8,1,8,{24}2,3,4h[24:7],7,6,5h[24:4],{16},,,4,5,,6h[8:4]/3,,
{8}3h[8:3],,,,1>4[8:1]/8<5[8:1],,,,
{16}2b-4[8:1]/4h[8:1],,,24,,6,6,,{8}5,3/7h[8:1],{16}2,4,{8}3h[8:5],
{8},E7,E6,C,E4,{8}1x,1x/2x,,
{16}7-5[8:1]/5h[8:1],,,75,,3,3,,{8}4,6/2h[8:1],{16}4,3,{8}8h[8:5],
{8},E1,B7,B3,E5,C,6b/2b,,
{8}4-6[8:1],3,2-4[8:1],,7pp6[8:3],,5,,
{8}3h[16:7],,{16}E5,,,C,,,,,{8}3x/7x,,
{8}5-3[8:1],6,7-5[8:1],,2qq3[8:3],,4,,
{8}6h[16:7],,{16}C,,,E1,,,,,{8}1x/8x,,
{8}1-7[8:1],1-3[8:1],,,5pp4[8:3],,3,,
{8}1h[16:4],,{16}5,,,3h[16:3]/7h[16:3],{4},
{16}2-6[32:5],1,,8xh[16:3],,,,,8-4[32:5],1,,2xh[16:3],,,,,2,,3v5[32:7]/7>3[32:7],,
{8},,,,{16}4,5,4,,{4}7x/3x,
{8}6b/2b,3,3/E5,3,7<4[8:1],8,4,3,
{8}1>4[8:1]/5,,{16}B6/E7,,,7xh[16:3],,,5,,{8}46,,
{8}37,6,6/E5,6,2>5[8:1],1,5,6,
{8}8-4[8:1]/4,,{16}B3/E3,,,1xh[16:3],,,5,,{8}2x/4x,,
{16}57,,6,5,6,5,,4,,34,,5,{8}1>5[4:1],1,
{4}5<1[4:1],1pp1[16:5],5,7-5[8:1],
{8}3,3,4-8[8:1],2,1,1,2pp4[32:7]/7qq5[32:7],36,
{8},,,45,3-6[8:1]/6,,Cf,{16},8b,
{16},8,,1x/7x,,2,4,3,6,5,6,,47,47,,8x,
{16},2,4,3,7,7,,4,6,5,6,,37,37,,1xh[16:5],
{16},6,,4,4,,5,1,7,,68,,3,3,,8,
{16}8xh[4:1],,4,,2,1,2,,3x/7x-3[8:1],,4x/6x,,3x/7x,,,1b,
{16},5,5,,2/6h[8:1],,4,,7,5,6,,3h[8:1]/4,,8,,
{16}5/7h[8:1],,4,5,4,5,2,2h[16:3],,1,1,,38,,47,4xh[16:3]/7xh[16:3],
{8},,2/5h[8:1],3,4h[8:1]/7,6,1/5h[8:1],3,
{8}8/4h[8:1],6,E7/Cf/E3,,4b>1[8:1]/5b<8[8:1],1b/8b,,,
{8}1-3[8:1]/3,{24}8,7,6,{8}1-5[8:1],{16}4,4,1,6,,,{8}3<6[8:1]/4,2,
{8}3/5-1[8:1],7,8>3[8:1],{16}7,7,8,6,,,{8}4xh[8:1]/5xh[8:1],,
{16}7,8,7,6,7,3,4,3,2,3,4,,{8}4/5qq5[4:1],6,
{16}5x<3[16:5]/7xh[8:1],,,8xp4[8:1],,,,,,,,,{8}24,7,
{8}8-6[8:1]/6,{24}1,2,3,{8}8-4[8:1],{16}5,5,8,3,,,{8}6>3[8:1]/5,7,
{8}6/4-8[8:1],2,1<6[8:1],{16}2,2,1,3,,,{8}5xh[8:1]/4xh[8:1],,
{8}1-4[8:1],23,4,5-8[8:1],67,8,1-4[8:1]*-3[8:1],,
{8}1x-6[8:1]*-7[8:1],,1xw5[8:1],,1x`Cf,,3b/7b,,
{8}6x<2[16:3],5,3x>7[16:3],4,6x<2[16:3],5,3x>7[16:3],4,
{8}5-8[8:1],5,4-1[8:1],4,7-3[8:1],8,1-6[8:1]*-4[8:1]/7,2,
{4}1x,{16}57,5x/7xh[8:1],,{48}E4,B3,B2,{8}E2,6,{16}43,4x/3xh[8:1],,{48}E6,B6,B7,
{8}E8,2,45,7,{12}18,18,18,{4}2b/7b,
