&title=HUMAN-LE
&artist=平沢進; 核P-MODEL
&first=0.02
&des=平沢巡
&lv_5=12
&inote_5=(125)
{1},,,,
{16},,,,,,,,,,,,5,5,,,
3>8[8:1]/4h[4:1],,,,,,5,,6<1[8:1],,6h[8:1],,,,5,,
4>1[8:1],,4h[8:1],,,,8-4[4:1],,8h[8:3],,,,,,,,
6<1[8:1]/5h[4:1],,,,,,4,,3>8[8:1],,3h[8:1],,,,4,,
5<8[8:1],,5h[8:1],,,,1-5[4:1],,1h[8:3],,,,,,,,
2>5[8:1]/4h[4:1],,,,,,6,,7-3[8:1],,7h[8:1],,,,1,,
2-6[8:1],,2h[8:1],,,,5<8[8:1],,4>1[8:1],,,,,,,,
7<4[8:1]/5h[4:1],,,,,,3,,2-6[8:1],,2h[8:1],,,,8,,
7-3[8:1],,7h[8:1],,,,4<7[8:1],,5-1[8:1],,,,,,,,
8<5[4:1],,,,,,4-7[4:1],,3h[4:1],,,,,,,,
1>4[4:1],,,,,,5-2[4:1],,6h[4:1],,,,,,,,
1<6[4:1],,,,6>3[4:1],,,,3>8[4:1],,,,,,,,
4<7[4:1],,,,7>2[4:1],,,,2>5[4:1],,,,,,,,
1>4[4:1],,,,,,5-2[4:1],,6h[4:1],,,,,,,,
8<5[4:1],,,,,,4-7[4:1],,3h[4:1],,,,,,,,
8<5[8:1],,,,1-5[8:1],,,,2>5[8:1],,,,8-4[2:1],,,,
5h[2:1],,,,,,,,,,,,,,,,
1h[4:1]/2-5[8:1],,,,,,1,,1-5[8:1]/8h[4:1],,,,,,8,,
7h[4:1]/8-5[8:1],,,,,,7,,6h[4:1]/5-1[8:1],,,,,,,,
4-8[8:1],,,,,,1<6[8:1],,2>5[8:1],,,,,,6-3[8:5],,
6h[4:3],,,,,,,,,,,,,,,,
8h[4:1]/7-4[8:1],,,,,,8,,8-4[8:1]/1h[4:1],,,,,,1,,
2h[4:1]/3-6[8:3],,,,,,,,,,,,5<8[4:1]/8-4[8:1],,,,
5/8>3[4:1],,,,4-8[8:1],,,,4b,,,,5<8[4:1]/8-4[8:1],,,,
5/8>3[4:1],,,,4-8[8:1],,,,4b,,,,,,,,
1-4[2:1]`8-5[2:3],,,,,,,,,,,,,,,,
1-4[2:1],,,,,,,,,,,,,,,,
2-5[8:1],,8,2,1,,8,,7>2[8:1],,6h[8:1],,,,5,,
6>3[8:1],,7h[8:1],,,,8-5[8:1],,1-4[8:1],,,,,,,,
7-4[8:1],,1,7,8,,1,,2<7[8:1],,3h[8:1],,,,4,,
3<6[8:1],,2h[8:1],,,,1-4[8:1],,8-5[8:1],,,,,,,,
2-5[8:1]/5,,8,2,1,,8,,7>2[8:1],,6h[8:1],,,,5,,
6>3[8:1],,7h[8:1],,,,8-4[8:1],,1-5[8:1],,,,,,,,
7-4[8:1]/4,,1,7,8,,1,,2<7[8:1],,3h[8:1],,,,4,,
3<6[8:1],,2h[8:1],,,,1-5[8:1],,5-8[32:3],,1-4[8:1],,,,,,
6-1[4:1],,,,,,2-7[4:1],,3h[4:1],,,,,,,,
7-4[4:1],,,,,,3-7[4:1],,2h[4:1],,,,,,,,
1-6[4:1],,,6,6-3[4:1],,,3,3-8[4:1],,,,,,,,
5-2[4:1],,,2,2-7[4:1],,,7,7-4[4:1],,,,,,,,
3-8[4:1],,,,,,7-2[4:1],,6h[4:1],,,,,,,,
2-5[4:1],,,,,,6-2[4:1],,7h[4:1],,,,,,,,
8>3[4:1],,,3,3<6[4:1],,,6,6<1[4:1],,,,2-6[8:1],,,,
2b,,,,,,,,,,,,,,,,
7<4[8:1]/5h[4:1],,,,,,3,,3h[4:1]/8-4[8:1],,,,,,2,,
1>4[8:1]/2h[4:1],,,,,,8-5[8:1],,7-2[8:1]/8,,,,,,,,
2>5[8:1]/4h[4:1],,,,,,6,,6h[4:1]/8-4[8:1],,,,,,8,,
3h[4:1]/1-5[2:1],,,,,,,,,,,,,,,,
6h[4:3]/4-7[8:1],,,,,,,,7-2[8:1],,,,,,8<5[8:3],,
1>4[8:3],,,,,,,,,,,,4>1[8:1]/8<5[8:1],,,,
48,,,,8-4[8:1],,2,,6,,,,4>1[16:3]/8<5[8:1],,,,
48,,,,8-4[8:1],,2,,6,,,,,,,,
4-7[4:13]/6-1[4:13],,,,,,,,,,,,,,,,
,,,,,,,,,,,,,,,,
,,,,,,,,,,,,,,,,
,,,,,,,,,,,,5,5,,,
3-8[8:1],,4,3,5,,7,,8-3[8:1],,6,8,7,,5,,
6h[4:1],,8,,5h[4:1],,1,,4h[4:1],,8,,3h[4:1],,1,,
6>3[8:1],,8,6,1,,8,,3<6[8:1],,1,3,8,,1,,
4-8[8:1],,5,4,6>3[8:3],,7,,1h[8:1],,,,8h[8:1],,,,
1-6[8:1],,8,8,1>4[8:1],,7,,1-5[8:1],,6,7,1/8-4[8:1],,6,,
5>2[8:1]/8<5[8:1],,,,5-8[8:1]/8-3[8:1],,,,58,,,,,,,,
4-8[8:1],,3,3,4,,2,,1-5[8:1],,8,8,1,,7,,
46,,5,5,4>1[8:1]/6<1[8:1],,1-5[8:1],,,,,,,,,,
6-1[8:1],,5,6,4,,2,,1-6[8:1],,3,1,2,,4,,
3h[4:1],,1,,4h[4:1],,8,,5h[4:1],,1,,6h[4:1],,8,,
3<6[8:1],,1,3,8,,1,,6>3[8:1],,8,6,1,,8,,
5-1[8:1],,4,5,3<6[8:3],,2,,8h[8:1],,,,1h[8:1],,,,
8-3[8:1],,1,1,8<5[8:1],,2,,8-4[8:1],,3,2,8/1-5[8:1],,3,,
4<7[8:1]/1>4[8:1],,,,4-8[8:1]/1-5[8:1],,,,41,,,,,,,,
5-1[8:1],,6,6,5,,7,,8-4[8:1],,1,1,8,,2,,
53,,4,4,5<8[8:1]/3>8[8:1],,8-4[8:3],,,,,,,,,,
8b,,,,,,,,,,,,,,,,
1h[1:1],,,,,,,,,,,,,,,,
5b-1[16:1],,,,,,,,,,,,,,,,
