&title=Touch Tap Baby
&artist=ハッカドール
&first=0
&des=尘落南丘
&wholebpm=162
&lv_5=12.9
&inote_5=(162.0){1},
{8}25,8x/E4,,,74,1x/E6,,4b/B1/B2f/E2/A2,
{8},5b/B8/B7f/E8/A7,,4,6^5v7[8:1]/3^4v2[8:1],,,,
{4}3/B8/E8,2/B5/E6,3/B8/E8,2/B5/E6,
{8}4x,B7/A7/E7,5x,B2/A2/E3,4x,B7/A7/E7,5x,B2/A2/E3,
{4}5/B8/E1,6/B3/E3,5/B8/E1,6/B3/E3,
{8}8,C,1,C,2-4[8:1]/7-5[8:1],,27,,
{4}6/B1/E2,7/B4/E4,6/B1/E2,7/B4/E4,
{8}5x,B2/A2/E3,4x,B7/A7/E7,5x,B2/A2/E3,4x,B7/A7/E7,
{8}4bxh[4:1]/3bx,,5,5bxh[4:1]/6bx,,4,3b/6b,2b/7b,
{8},1b/5b,3b/7b,B5/E5f/B4,B8/E1f/B1,,,,
{8}43,2,43,5,4^7[8:1]/3^8[8:1],,43,,56,7,56,4,5-1[8:1]/6-2[8:1],,,,
{24}8bx,7x,6x,,,,2bx,3x,4x,,,,{8}B5/B4f/E6/E4,B1/B8f/E2/E8,,
{8},5^8[8:1]*^8[8:1],,2^5b[8:1],,7^2[8:1],,4b,,
{8}3qq4b[4:1],,,6,6pp5b[4:1],,,2,2pp1b[4:1],,,8,8^5b[8:1]*^3b[8:1],,,,
{8}A8/B8/E8f/B7,,A1/B1/E2f/B2,,A3/E4f/D4/A4,A6/E6f/D6/A5,,,
{4}4v5[8:1]/5,4^2b[8:1]/5^7b[8:1],4-1[8:1]/5-8[8:1],,
{4}2h[4:1],4h[4:1],6h[4:1],7-4[8:1],
{8}8-3[8:1],8,7-4[8:1],7,8q6[8:1],,C,,
{24}1h[4:1]/7h[4:1],,,,,,,2x/6x,3x/5x,4x,,,8h[4:1]/2h[4:1],,,,,,,7x/3x,6x/4x,5x,,,
{4}8-4[8:1],8-3[8:1]*-5[8:1]b,{96}E8/E1,B8f,,,,,,,,,,,{8},26,,
{4}7h[4:1],5h[4:1],3h[4:1],2^5b[8:1],
{8}6^1b[8:1],6,2^5b[8:1],2,7p1b[8:1],,C,,
{24}2hx[8:1]/8xp2[8:1],7x,6x,5x,,,,,,,,,
{24}7hx[8:1]/1xq7[8:1],2x,3x,4x,,,,,,,,,
{8}3-6[8:1],3,2-7[8:1]*-7[8:1],2,3-6b[8:1],,,,
{4}Chf[4:1],1bq2^5[8:3]*q2^5[8:3],8^5[8:1]*^5[8:1],,
{8},26,8bp7^4[8:3]*p7^4[8:3],,1^4[8:1]*^4[8:1],,,,
{8}2xpp3[4:1]*pp3[4:1]/6xh[4:1],,,6x,6xpp7[4:1]*pp7[4:1],,,,
{4}B3/B2/E3f/D3/A2,B6/B5/E6f/D6/A5,B1/B8/E1f/D1/A8/A1,{16}6x,3x,6x,3x,
{8}5,4,5,4,6,3,6,3,27,6,27,3,18,7,81,2,
{16}8,7,6,5,4,3,2,1,{32}8x,7x,6x,5x,4x,3x,2x,1x,8x,7x,6x,5x,4,,,,
{8},3x/4x,8b/2b,6x/5x,1bv4[8:1]/7bv4[8:1],,,,
{8}B5,B1,B3,B7,1-5[8:1],,,,
{24}7x/3hx[4:3],B7,,,,,1x,B1,,,,,7x,B7,,,,,1x,B1,,,,,
{8}6h[4:1],B2,5h[4:1],B1,4h[4:1],B8,3,B7,
{24}2x/6hx[4:3],B2,,,,,8x,B8,,,,,2x,B2,,,,,8x,B8,,,,,
{8}3h[4:1],B7,4h[4:1],B8,5h[4:1],B1,6,B2,
{24}7xV53V57[4:3],B7,,,,,8x,B8,,,,,1x,B1,,,,,8x,B8,,,,,
{24}2xV46V42[4:3],B2,,,,,1x,B1,,,,,8x,B8,,,,,1x,B1,,,,,
{4}58,E2/B2f/B3/E4,41,E8/B7/B6f/E6,
{4}7v4[8:1]/2v5[8:1],2b/7b,8-4[8:1],,
{24}7x/3x,B3/B7,,,,,6x/2x,B2/B6,,,,,7x/3x,B3/B7,,,,,6x/2x,B2/B6,,,,,
{24}7x,B7,,3,,,6x,B6,,2,,,7x,B7,,3,,,1x^4b[8:1]/5x^8[8:1],,,,,,
{8}1b/5bp4[4:1],,,,,2b/7b,,45,
{16}45,,3,4,2,,2,,45,,45,,6,5,7,,
{8}7-4[8:1],,7x/B2,,7-5[8:1],B1,7x/B2,,
{8}3-8[8:1],,3x/B6,,3-1[8:1],B5,3x/B6,,
{8}7,7,68,68,{16}1,5,1,5,2,4,2,4,
{16}3,,,4,3,,12,,3bx/A8f,,2bx/A7f,,1bx/A6f,,,,
{8}61,4x/E8,,,38,5x/E2,,8b/B5/B6f/E6/A6,
{8},1b/B4/B3f/E4/A3,,8,2^1v3[8:1]/7^8v6[8:1],,,,
{4}2/B5/E6,3/B8/E8,2/B5/E6,3/B8/E8,
{8}1,B6/A6/E7,8,B3/A3/E3,1,B6/A6/E7,8,B3/A3/E3,
{4}8/B5/E5,7/B2/E3,8/B5/E5,7/B2/E3,
{8}5,C,4,C,{16}6,4,5,3,6,,,,
{8}5bxh[4:1]/7bx,,4,4bxh[4:1]/2bx,,5,6b/3b,7b/2b,
{8},8b/4b,6b/2b,B4/E5f/B5,B1/E1f/B8,,,,
