&title=ぅゅゅ(´;ω;`)
&artist=なみぐる/可不
&first=-1.2
&des=gl
&des_5=gl
&lv_5=13
&inote_5=(200){4},,,,,,,,5,
{8}7,7-5[8:1],,4,{4}4,
4,{8}2,2-4[8:1],,5,{4}5,
5,{8}7,7-4[8:1],,3,{4}3,
5,{8}2,2-5[8:1],,6,{4}6,
8qq5[8:5],{8}3,3,,2,{4}2,
1pp4[8:5],{8}6,6,,7,{4}7,
8qq5[8:5],{8}3,3,,2,{4}2,
B7/B6,C,{8}B2/B3,B4,{4}B4,
1>4[4:1],{8}4v1[4:1],4,,6,{4}6,
8<5[4:1],{8}5v8[4:1],5,,3,{4}3,
1>4[4:1],{8}4q1[8:3],4,,7,{4}7,
8<5[4:1],{8}5p8[8:3],5,,2,{4}2,
1>4[4:1],{8}4qq1[2:1],4,,6,{4}6,
8<5[4:1],{8}5pp8[2:1],5,,3,{4}3,
1>4[4:1],{8}4qq1[2:1],4,,6,{4}6,
E7,E1/E5,{8}E3,4x,{4}4x>6[1:1],
5,5,5,5-8[8:1],
5x-2[8:1],5xq8[2:1],{2}5x,
{8}2,1,3,8,{4}7-5[4:1],5-3[4:1],
3-1[4:1],1-7[4:1],7-5[4:1],5<3[1:1],
4,4,4,4-1[8:1],
4x-7[8:1],4xp1[2:1],{2}4x,
{8}7,8,6,1,{4}7,8-6[8:1]*-5[8:1],
8-2[8:1]*-3[8:1],8-4[8:1],{8}8b,B2/B3,{4}B2/B3,
{8}3,4,2,5,3,4,2,5,
3,4,2q2>5[2:1],5,{2}2,
{8},6,5,6,4,7,3,8,
2,1,3p5[8:3],4,3,,,7,
7>5[4:3],2,{4}2h[8:5],{8},,,,,3,
4,3,5,2,4>5[1:1],3,
{1}4h[4:3],
{4}E3/E7,B1/B5/B8/B4/E1/E5,{8}C,E8/B7,{4}E8/B7,
{8}7,8,6,5,7,8,6,5,
7,8,6qq5<1[2:1],5,{2}6,
{8},2,1,2,8,3,7,4,
6,5,7p5[2:1],8,7,,,2,
2<4[4:3],7,{4}7h[8:5],{8},,,,,2,
1,2,8,3,1>8[1:1],2,
{1}1h[4:3],
{4}E7/E3,B5/B1/B4/B8/E5/E1,{8}C,E4/B3,{4}E4/B3,
{8}7h[1:4],,,B6,B5,C,B4,B3,
,C,,B6,,B5,C,B4,
B3,,,B6,B5,C,B4,B3,
,C,,B6,,B5,C,B4,
{4}B3,7,6,5,
4,3,2,2,
{8}3,4,2/5,{16}3,4,{8}3,{16}5,4,{8}5-7[8:1]*-2[8:1],6/4,
{4}5x-1[8:1],5x-8[8:1]*>3[8:1],{8}5x,B3/B4,{4}B2/B1,
{8}8/3,{16}2,1,{8}2pp5[2:1],8,{4}2,{8}8,7,
{4}6>2[4:1],2<6[4:1],6,4,
{8}1/6,{16}7,8,{8}7qq4[2:1],1,{4}7,{8}1,2,
{4}3<7[4:1],7>3[4:1],3,5,
{8}3>8[8:1],4,5,6,4>1[8:1],5,6,7,
5>2[8:1],6,7,8,1>3[8:1],8<6[8:1],1,8,
{4}4-8[8:1],5-7[8:1],4-2[8:1],5-1[8:1],
5/4>1[8:1],4/5<8[8:1],{8}5b/4,E2/B2,{4}B2/E2,
{8}1/6,{16}7,8,{8}7p5[2:1],1,{4}7,{8}1,2,
{4}3V57[4:1],7V13[4:1],3,5,
{8}8/3,{16}2,1,{8}2q4[2:1],8,{4}2,{8}8,7,
{4}6V42[4:1],2V86[4:1],6,4,
{8}6<1[8:1],5,4,3,5<8[8:1],4,3,2,
4<7[8:1],3,2,1,8<6[8:1],1>3[8:1],8,1,
{4}5-1[8:1],4-2[8:1],5-7[8:1],4>1[8:1],
4/5<8[8:1],5/4>1[8:1],{8}4b/5,7x,{4}7x>4>7[1:1],
4,4,5,5-2[8:1],
5x-1[8:1],5x-8[8:1],{2}5x-7[8:1],
{8}2v5[8:1],2,8<4[4:1],8,{4}4>8[4:1],8p4[4:1],
4p8[4:1],8<4[4:1],4,2<5<2[1:1],
5,5,4,4-7[8:1],
4x-8[8:1],4x-1[8:1],{2}4x-2[8:1],
{8}7-5[8:1],7,4>1[8:1],4,{4}8-5[8:1],4-2[8:1]*-1[8:1],
4-7[8:1]*-6[8:1],4w8[8:1],,6<4[2:1],
4,4p6[2:1],5,5-2b[8:1],
5-1b[8:1],5-8b[8:1],{2}5-7b[8:1],
{8}2v5[8:1],2,8<4[4:1],8,{4}4>8[4:1],8p4[4:1],
4p8[4:1],8<4[4:1],4,2<5[2:1],
5,5q2[2:1],4,4-7b[8:1],
4-8b[8:1],4-1b[8:1],{2}4-2b[8:1],
{8}7-5[8:1],7,4>2[8:1],4,8-4[8:1],8,1-5[8:1],1,
{4}1<6[8:1]*>4[8:1],1w5[8:1],{2}1b,
E
