&title=清雨毁号
&artist=清雨Tpor
&first=0
&des_7=清雨老冯实名起飞
&lv_7=冯
&des=清雨老冯实名起飞
&inote_7=(200)
{4},,,,,,
{24},,,,,,,,,1/8,2/7,3/6,4/5,,,,,,,,,
(250)
{32}2v4[8:1],,,,,,,2<6[4:1],,,,,,,,,5v3>7b[2:1],,,,,,,,,,,,,,,,,,,,,,,,,,,,,,,,,B1,B8,,,,E2,A2,,,,B1,B8,,,,E2,A2,,,,B1,B8,,,,,,,,D8,,,,,,,,,,,,,,,,,,A8/D1f/4xV25-8-6[1:1],,,,,,,,,,,,,,,,,,,,,,,,,,,,,,,,,,,,,,,,,,,,,1,,,,8,,,2,,,,2,,,2,,,,7,,,,3/6,,,,,,,,,,,,,,,,,,,,,,,,,,,,,
{48},,,,,,,,,,,7V52[4:1],,,,,,4v2<6b[2:1],,,,,,,,,,,,,,,,,,,,,,,,,,,,,,,5xw1[2:1],,,,,,,,,,,,,,,,,,,,,,,,,,,,,,,,,,,,,,,,,,,,,,,,,,,,,,,,3-6-2-7-1-5[2:3],,,,
{4},,,,,,,,,
{48},,,,,,,1,,,,,1,,,,,1,,,,,8,,,,,2,,,,,7,,,,,,3,,,,,,3,,,,,,3,,,,,,5v3>8[4:3],,,,,,4,,,,,,4h[24:26],,,,,,,,,,,,,,,,,,,,,,,,,,,,,,,,,,,,,,,,,,,,,,8,,7,,6,,5,,,,,,,,,,,,,,,,,,,,,,,,,D3,E3,C,E7,D7,,,,,,,
{4},,,,,,,,,,
{48},,,,,,,,,A8,,,,,,,,,,,,,,,,,,,,,,,,,,,,,D4,,,,,,,,,,,,,,,,,,,,,,,,,,,,,,,,,,,,,,,,,,,,,,C,,,,,,A7,E8,B8,B1,E2,A2,,,,,,,,,3,,,,,,,,,,,,,,,,,,,B5/B4/E5,,,,,,,,,,A8,,,,,,,,,,,,,,,,7,,,,,,,,,,,,,,,,,,,,,,,,,,,4,,,,,,,,,,,,,,,,,,,,,,,,,,,,,,,,,,,,,,,,,,,,B4/B5,,,,,,,,,,,,,,,
{4},,,,,,
(220)
{48}8-5[8:1]*-4[8:1]/1-4[8:1],,,,,,,,,,,,1/8,,,,,,,,,,,,,,
{48}2-5[8:1],,,,,,,5-3[8:1],,,,,,2x,,,,,,6-1[8:1],,,,,,,,6,,,,,,,,,,,,,,,,,,,,,,,,,6b,,,,,,,,,,,,,,,,,,,,,,,,,,,E1,,,,,,,,,,,,,,,
{16}8,1,2,3,8,1,2,3,1,2,3,4,1,2,3,4,2,3,4,5,2,3,4,5,,,,,
{48},,,,,1s5[8:1],,,,,,,,,,,6V85-2-4[2:1],,,,,,,,,,,,,,,,,,,,,,,,,2qq1-4[4:1],,,,,,,,,,,,,,,,8xv2[8:1]*v5[8:1],,,,,,,,,,,,,,,,,,,,,,,,,,,
{16}2,3,4,5,2,3,4,5,3,4,5,6,3,4,5,6,,,,,,,,B1,,
{16}E3,B3,B4,E5,E2,B2,B3,E4,E1,B1,B2,E3,,,,,,,,B1,,,,
{32}2,3,4,5,6,7,8,1,2,3,4,5,6,7,8,1,2,,,,,,,,,,,,,,,,,,,,,,,,,,,,B1,,,,,
{24}2,3,4,5,7,8,1,2,
{32}5,6,7,8,1,2,3,4,5,,,,,,,,,,,,,,B6,,,,,,,,,,,,,,,,,,,,,,,,B1,,,,,,,
{16}1,2,3,4,1,2,3,4,1,2,3,4,,,
{24}1/8,2/7,3/6,4/5,,,,,
{32}2,3,4,5,8,7,6,5,,,,,,,C,,,,,,,,,,,,,,,,,,,,,,,E2,D2,,,,,,,,,,,,,,,,,,B2,,,,,,,,,,,3,4,5,,,,7,8,1,,,,,,,,,,,,3,4,5,,,,,,,7,8,1,,,,,,,,,,,,,,4,5,6,,,,,,,8,1,2,,,,,,4,5,6,,,8,1,2,,,,,,,,,,,,,,,,,,,,,B2,,,,,,,,,,,,,,,,,,,,,,8V27-3-6-4[1:1],,,,,,,,
{96}A8,,,,,E1,,,,,E2,,,,,A2,,,,,B1,,,,,B8,,,,,E8,,,,,A7,,,,,B7,,,,,C,,,,,B3,,,,,A3,,,,,E4,,,,,B4,,,,,B5,,,,,E6,,,,,A6,,,,,E5,,,,,A4,,,,,,,,,,,,,,,,,,,,,,,,,,,,,,,,,,,,,,,,,,,,,,,
{48},,,,,,,,,,,,,,,,,,,,,,,,,,,,,,,,,,,,B3,,,,,,,,,,,,,,1/8,,,,,,,,,,,,,,,,,,,,,,
(230)
{16}1/5,2,3,4,5/1,6,7,8,1/5,2,3,4,5/1,6,7,8,1/5,2,3,4,5/1,6,7,8,1/5,,,,,,,,,,,,,,
{24}A2,E3,B3,B4,E5,A5,,,,,,,,,,,,,,
{32}E8,B8,B1,E2,,,,,E4,B4,B5,E6,,,,,,,,,,,,,,,,,,,,,,,,,,,,,B3,,,,,,,,,,,,,,
{16}8/4,7,6,5,4/8,3,2,1,8/4,7,6,5,4/8,3,2,1,8/4,7,6,5,4/8,3,2,1,8/4,,,,,
{24}E6,B5,B4,E4,,,,,,,,,,,,,,,,,,,,,,,
{48},,,,,,,,,,,,B1,,,,,,,,,,,,,,,,,,,,,,,,,,,,,,,,
{16}E4,B3,B2,E2,E4,B3,B2,E2,,E2,B2,B3,E4,,E2,B2,B3,E4,,,,,,,,,,,,,,,,,,1,2,3,4,,,,,,,,,,,,,,,,,,,,,,,,,,,,,
{48},,A3/D4/A4,,,,,
{4},,
{48},,,,,,,,,5b,,,,,,,,,,,,,,,,,,,,,,,,,,,,,,2b/8b,,,,,,,,,,,,,,,,,,,,,,,,,,,,,,,,,,,,,,,,,,,,,,,,,,,1b/8b,,,,,,,,,,,,,,,,,,,,,,,,,,,,,,,,,,,,,,,,,,,,,,,,,8b,,,,,,,,,,,,,,,,,
{4},,
{48},,,,,,,7b,,,,,
{4},,,,
{48},,,6b,,,,,,,,,
{4},,,,
{48}5b,,,,,,,,,,,,,,,,,,,,,,,,
{4},,,4b,,,,
{48},,,,,,,,3b,,,,
{4},,,,
{48},,2b,,,,,,,,,,
{4},,,,1b,,,
{48},,,E6/B5/B4/E4,,,,,,,,,,,,,,,,,,,,,8-5[8:1]*-4[8:1]/1-4[8:1],,,,,,,,,,,,,,,,,,,,,,,,,,,,,,8-6[8:1]*-5[8:1]/2-4[8:1]*-5[8:1],,,,,,,,,,,,,,,,,,,,,,,,,,,,,,1s5[8:1],,,,,,,,,,,,,,,,,,,,,,,,,,,,,,3-5[8:1]/8-5[8:1],,,,,,,,,,,,,,,,,,,,,,,,,,,,,,8<8[1:1]/4h[1:1],,,,,,,,,,,,,,,,,,,,,,,,,,,,,,,,,,,,,,,,,,,,,,,,,,,,,,,,,,,,,,,,,,5v8[8:1]*v2[8:1],,,,,,,,,,,,,,,,,,,,,,,,,,,,,,2-4v5[4:1]/7-5v4[4:1],,,,,,,,,,,,,,,,,,,,,,,,,,,,,,1<4[4:1],,,,,,,,,,,,,,,,,,,,,,,,,,,,,,2V48-6[4:1],,,,,,,,,,,,6V85-2-4[1:1],,,,,,,,,,,,,,,,,
{48}5x,,,,,,6x,,,,,,6x,,,,,,,,,,,,,,,,,,,,,,,,,,,,,,,
{32},,,,,,,,,,,,,,,,1,2,3,4,,,,,8,7,6,5,,,,1,2,3,4,,8,7,6,5,1,2,3,4,,8,7,6,5,,,,,,,,,,2,3,4,5,,,1,8,7,6,,,,,,,2,3,4,5,1,8,7,6,2,3,4,5,1,8,7,6,,,,,,
{24}1/8,2/7,3/6,4/5,,,,1/5,2,3,4,5,6,7/3,8,1,2,3,4,5/1,6,7,8,1,2,3/7,4,5,6,7,8,1,2/7,3/6,4/5,,,,,1/8,2/7,3/6,4/5,,,,
{32}3b/7b,2/6,1/5,4/8,,,,,,,,,3b/7b,2/6,1/5,4/8,,,,,,,,,,,,,,,,,,,,,,,,B1,,,,,,,,,,,,,,,,,,,,,,,,,,,,,,,,,,,,,,,,,,B1,,,,,,,,,,,,,,,,,,,
{32}1,2,3,,,7,6,5,,2,3,4,5,6,7,8,1,2,,,,,,,,,,,,,,,,,,,,,,,,B2,,,,,,,,,,,,4,3,2,1,,,,5,6,7,8,,,,,,,
{48}2,,,,,,,2,,,,,,2,,,,,,,,2v4[8:1]*<7[8:1],,,,,,2,,,,,,,,,,,,,,,,,6<2v4[2:1],,,,6,,,,,,,6,,,,,,,,,,,,,,,,,,,,,,,,,,,,,,,,,,,,,,,,,,,,,8,,,,,1/7,,,,,1/7,,2/6,,,,,,,,2v4[4:1]/6<2[4:1],,,,,,2/6,,,,,,,,,
{48},,,,,,,,,,,,,B2,,,,,,,,,,,,,,,,,,,,,,B3,,,,,,,,,,,,,,,,,,,,,,,
{32},2,3,4,,,,,,8,1,2,3,4,5,,,,,,,,,,,,,,8b,,,,,,,2,3,4,,,,,,2,3,4,5,6,,,,,,,,,,,,,,,,,,,,,B3,,,,,,,,,,,,,,,,,,,,,,,,3,2,1,,,,,,,,,,,,,,,,,,,1/8,2/7,3/6,4/5,,,,,,,,,,,
{48}4,,,,,3/5,,,,,,3/5,,,,,,2-6[4:1],,,,,8-4[4:1],,,,,,,,,,,,,,,,,,,,,,,,,,,,,,,,,,,,,,,,,,,,,,,,,,,,,
{32}6,5,4,3,,,,2,,,,,,1,,,,,,1,2,3,4,,,,,,,,,,,,,,,,,,,,,,,,,1,2,3,4,5,6,7,8,1,,,,,,,,,,,,,,,
{48}7s3[4:3],,,,,,,,,7b,,,,,,,,,,8b,,,,,,8b,,,,,,8b,,,,,,,8b,,,,,,,,,,,,,,,,,,,,,,,,,,,,,,,,,,,,,,,,,,,,,,,,,,,,,,,
{32}D3,A3,D4,A4,,,,,,B5,,,,,,,,,,,,,Cf,,,,,,,,,,,,,,,E2,B2,B3,E4,,,,,,,,,,,,,,,,,,,,,,,,B8,,B4,,D4,,,,,,,,,,,,,,,,,,,,,,,,,,,,,,,,,,,,,,,,,,,,D3,A3,D4,A4,,,,,B4,,,,,,,,,,,Cf,,,,,,,,,,,,,,,,,,,,,,,,,,,,,,,,B3,,,,,,,,,,,,,,,,,,E1,,E3,,E4,,B4,,B5,,E6,,,,,,,,,,,,,,,,,,,,,,,,,,,,3,,,,,,,,D3,A3,D4,A4,,,,,,,B4,,,,,,,,,Cf,,,,,,,,,,,,,,
{48},,,E4,,,,,,,,,,B3,,,,,,,,,,B2,,,,,,,,,,E2,,,,,,,,,,A1,,,,,,,,,,,,,,,,,,,,,,,,,,,,,,,,,,,
{32}E2,,B1,,B7,,E7,,E6,,B5,,E5,,A4,,D4,,A3,,A2,,1x,8x,7x,6x,5x,4x,3x,2x,1,8,7,6,5,4,3,2,1,,,,,,,,,,,,,,,,,,,,,,,,,,
{48},,,,D3,A3,D4,A4,,,,,,,,,,,,,,,,,,,,,,,,,,,,,,,,,,,,,,
{24}B4/C,B3,B2,B1,B8,B7,B6,B5,B4,B3,B2,B1,B8,B7,B6,B5,B4,B3,B2,B1,B8,B7,B6,B5,,2xpp2pp2pp2pp2pp2[4:3],,,,
{48},,,,,,,,,,,
{4},,,,,,,,,
{48},,,,,,,,,,,,7s3[4:3],,,,,7b,,,,,,,8b,,,,,,,,,,8b,,,,,,,8b,,,,,,,,8b,,,,,8b,,,
{4},,,,,,,,,,,,,,,,,,
{48},,,,,,,,,,,2-4[16:1],,,,,,,1-5[16:1],,,,,,8-6[16:1],,,,,,,,2-4[16:1],,,,,,,,1-5[16:1],,,,,,,8-6[16:1],,,,,,,,,,,,,,,,,,,,,,,,,,,,,,,,1/8,,2/7,,3/6,,4/5,,,,,,,,,3qq1-5>4[4:5]/7pp1-5<6[4:5],
{4},,,,,,,,,,,,,,,,,,,
{48},,,,,,,,8/1,,7/2,,6/3,,5/4,,,,,,,,,6pp8-4<5[4:5]/2qq8-4>3[4:5],
{4},,,,,,,,,,,,,,,,,,,,,,,,,,,,
{48},,,,,,,,,A1/B1/C/B5/A5/A7/B7/B3/A3,,,,,,,,,,2xqq8-4>3[2:1]/6xpp8-4<5[2:1],,,,2x/6x,,,,,,,,,,,,,,,,,,,,,,,,,,,,,,,,,,,,,,,,,,,,,,,,,,,,,,5-3[8:1]*-8[8:1],,,,,,,,,,,,,,,,,,,,,,1-4[8:1]/7-4[8:1],,,,,,,,,,,,,,,,,,,,,,,,3-7[8:1],,,,,,6-2[8:1],,,,,,,,,,,,,,,,,,,,,,,,,,
{48}3V51<7[4:1],,,,,,,,,,,,7<7b[2:1],,,,,,,,,,,,,,,,,
{4},,,,
{48}5-3[8:1]*-8[8:1],,,,,,,,,,,,,,,,,,,,,,1-4[8:1]/7-4[8:1],,,,,,,,,,,,,,,,,,,,,,2/6,,,,,,,2/6,,,,,,,,,3>7>3[2:1],,,,4,,,,7,,,6,,,,,,,,,,,,,
{4},,,,,,,,,,,,,,
{48},,,Ch[2:1],,,,,,,,,,,,,,,,,,,,,,,,1-5[87#16:1],,,,,,,,,,,,,,,,,7-3[87#16:1]/8,,,,,,,,,,,,,,,1>4[87#16:1]/8,,,,,,,,,,,,,,,,7<4[87#16:1]/8,,,,,,,,,,,,,,,,1/8,,,,,,,,,,,,,,,,7/8,,,,,,,,,,,,,,,,,,,,,,,,,
{48},,,,2,,,,,,5,,,,,5,,,,,5,,,,1bv4[8:1]*>1[2:1],,,,,1b,,,,1b,,,,,,,,,,,,,,,,,,,,,,,,,,,,,,,,,,,,,,,,,,,,,,,,,,,,,,,6<2[6:1],,,,,,,,2v4[8:1],,,3x,,,,,,,,,5xw1[8:1],,,,,,,
{4},,,,,,,
{48},,,,,,,,,,,,,,,2,,3,,4,,,,,,Ch[16:1],
{4},,,,,,,
{48},,,,,,,,,,,,,,,3b,,,5b,,,,1b,,,,,,,,,7<4[8:1],,,,7>2[8:1],,,,7-3-7V51[2:1],,,,,,,,,,,,,,,,,,,,,,,,,,,,2,,,,2,,,,,,2,,,,3,,,,,,4,,,,,5x,,,5x,,,,6x/4x,,,,,6x/4x,,,,,6x/4x,,,,,,,6x<2[2:1]/4xv2[2:1],,,,,,,,6x/4x,,,,
{4},,,,,,,
{48},,,,,,,,,,,
{24}2,3,4,5,6,7,8,1,2/7,6/3,5bw1[4:5]/4bw8[4:5],,,,,,,,,,,,,,,,,,,,,,,,,,,,,,,,,,,,,,,,,,,,,,,,
(225)
{64},,,,,,,,,,,,,,,,,,,,,,,,1/8,2/7,3/6,4/5,,,,,1b/2,,,,,,,,,,,,,,,,,,,,,,,,,,,,,,,,,
(200)
{4}1b/8b,1b/8b,4b/5b,2b/6b,
E
