&title=ユメ語るよりユメ歌おう
&artist=Aqours
&first=0
&des=WuWai
&lv_5=12
&inote_1=
&inote_5=(159){1},,
{16}3V58[8:5],,,,,,,,,,,,,,3V58[8:7],,
{16},,,,,,,,,,,,,,,,
{16}1s5[8:5],,,,,,,,,,,,,,8,,
{16}1s5[8:4],,,,4,,,,6,,,,8,,,,
{16}1<1[8:6],,,,,,,,,,,,,,,,
{16}5q7[2:1],,,,,,,,,,,,4,,6,,
{16}8/1h[4:1],,,,4,,4-1[8:1]/3,,,,46,,,,2/7h[4:1],,
{16},,3,,4,,5-8[8:1]/2h[4:1],,,,,,,,2,1,
{16}3,,4,,5,,6-1[8:1],,,,4,,3,,2b/1b,,
{16},,5b/6b,,,,3b>6[4:1]/8b,,,,,,,,5,,
{16}4h[4:1],,,,8,,6-1[8:1]/5-2[8:1],,,,56,,,,3v5[4:1],,
{16},,5V38[4:1],,6,,7h[8:3],,,,,,,,3,5,
{16}4-2[8:1],,,,5,,5-1[8:1],,,,4b-8[8:1]/5b,,,,4b/5b,,
{16},,1,8,2-6[4:1]/7-3[4:1],,,,,,,,,,,,
{16}27,,,,3h[4:1],,,,4,,2,,5v6[4:1],,4h[8:3],,
{16},,,,,,,,65,,4-8[8:1]/3,,2,,1,,
{16},,,,8b-5[8:1]*q5[8:1]/1b,,,,8b,,,,,,3h[4:1],,
{16},,6,,4,,7,,5w1[8:1],,,,5,,,,
{16}37,,,,6h[4:1],,,,5,,7,,4v3[4:1],,5h[8:3],,
{16},,,,,,,,34,,6/5-1[8:1],,7,,8,,
{16},,,,1bz5[8:1]/8bs4[8:1],,,,8b/1b,,,,,,6h[4:1],,
{16},,4,,5,,3,,5,4,5,,27,,,,
{16}1>4[8:1],,,,1,,8q5[8:1],,,,8,,1>7[4:1],,,,
{16}1,,8p1[4:1],,,,8,,,,3,,3,,,,
{16}46,,5/7>1[8:1],,46,,5h[4:1]/7,,,,8,,3,,,6,
{16}5>3[8:1],,6,,7,,8,,,,1/2,,2,,8,1,
{16}8,,3-7[8:1]/7,,46,,37,,,,65,,6,,4,5,
{16}4,,37,,28,,37,,1,8,2,7,3,,5,,
{16}1,,1pp4[8:5],,8,,8,,7,,7,,6,,6,,
{16}5,,5pp8[8:5],,4,,4,,3,,3,,2,,2,,
{16}1b-6[8:1],,,,1,,5V38[4:1],,,,53,,,,2h[4:1],,
{16},,1,,38,,47,,5,4,6,3,7,2,8,1,
{16}2/7-4[8:1],,6,,2/7,,1-4[8:1],,5/2,,1,,,,5-8[8:1],,
{16},,1-6[8:1]/5,,2-5[8:1],,1,,2,,,,8b,,,,
{16}2-5[8:1]/7,,3,,2/7,,8-5[8:1],,74,,8,,,,4<7[8:1],,
{16}7>4[4:1],,,,5-1[8:1],,,,5,,,,2/8,,1,8,
{16}1h[4:1],,,,5,,6,,7-4[8:1],,1,,2,,3V58[4:1],,
{16},,8z4[4:1],,7,,6h[2:1],,,,,,,,2-5[8:1],,
{16},,6-3[8:1],,7,,6/1-5[8:1],,2,,1/7-4[8:1],,8,,7/3-8[8:1],,
{16}2,,3/5-1[8:1],,6,,5,,2,8,4,5,1,7,4,5,
{16}1-4[8:1],,2,,1/6,,7-4[8:1],,8/4,,7,,,,3-1[8:1],,
{16},,8-3[8:1]/3,,7-4[8:1],,8,,7,,,,1b,,,,
{16}8-5[8:1],,7,,8/3,,2-5[8:1],,1/5,,2,,,,6b,,
{16}4b>1[8:1]/5b<8[8:1],,,,4b/5b,,,,2b/8b,,,3b/7b,,,4b/6b,,
{16}5b-1[8:3],,,,,,,,,,4,,3,,2>4[8:1]/7,,
{16},,6,,7,,8<5[8:1],,,,,,1-4[8:1],,7,,
{16}1b-6[8:1],,,,1b-4[8:1]/2b,,,,1b-6[8:1]/8b,,,,1b,,,,
{16}4h[8:1],,3h[8:1],,2h[8:1],,1h[8:1],,2,3,4,5,6,,,,
{16}5,,37,,5qq5[4:1]*pp5[4:1],,46,,5,,,,,,3,,
{16},,15,,3pp4[4:1]*V14[4:1],,24,,3,,,,,,,,
{16}6,,3,,27,,1/8h[4:1],,,,2,,3,,4h[4:1],,
{16},,5,,45,,3,4,3>8[8:1],,,,5,,6,,
{16}7<4[8:1],,,,2,,1>4[8:1],,,,5,,5,,,,
{16}1,,8,,27,,,,4,,5,,3-8[8:1],,7,,
{16}6-1[8:1],,,,2,,3-8[8:1],,,,6,,7,,,,
{16}1,8,1,,27,,,,35,,,28,,,57,,
{16}6qq8[8:5],,,,,,,,,,3,,2,,1h[4:1],,
{16},,8,,7,,6,,4,5,3,6,2,7,1,8,
{16}2-5[8:1]/7,,,,6,,6-1[8:1],,,,6w2[8:1],,,,6,,
{16},,4,,5,,3h[4:1]/6v4[8:1],,,,,,,,3,5,
{16}4-2[8:1],,,,4,,5-7[8:1],,,,5-1[8:1],,,,5,,
{16},,28,37,4/6,,,,35,,,46,,,57,,
{16}5h[4:1]/7V14[4:1],,,,,,,,,,5,,3V58[8:7],,8-5[4:3],,
{16},,,,,,,,,,,,,,,,E
