&title=像幽灵一样
&artist=佐藤乃子
&first=-0.31
&des=墓
&lv_5=13
&des_5=墓
&inote_5=
(119){4},6?<3[4:5],{1},{4},,,{16}6>4[16:1],
,,3,,,,,7<5[16:1],,,4,
,,,,8<6[16:1],,,5,{32},,,4,,,,,{8}2>4[16:1],5,
{4}5,{12}5/4,{24}3,4h[12:1],,2,,,,,,,{12}6/5<7[8:1],{24}4,5h[12:1],,3,
,,{12}4h[24:1],,6>4[16:1],{24}7,8h[12:1],,6,,,{12}3h[24:1],,5>3[12:1],{24}5,4,,4,
{8}6,7b,{12}1/8,{24}2,1,,2,{4}8h[8:1],{12}1/3,{24}2,8,,8,
{4}3h[8:1],{12}8/7,{24}6,5,,5,{12}7,{24}4,6,,,{12}3,{24}3,4,,4,
{8}3h[8:1],5h[8:1],{12}2,{24}4,3,,3,{4}7h[4:1],{12}5,{24}5,6,,6,
{12}3h[12:1],{24}5,4h[8:1],,,{12}7>1[12:1],{24}7,8,,8,{8}5,4,{12}3/4,{24}6,5,,7,
{8}8-5[12:1],7/1,{48},,,,,,,,,,,1-7[16:1],{4},{32}2-6[16:1],,,,,,,4,
{16},,,{64},,{96},{48}7,,,,,,7h[48:7],,,,,,,{8}5>2[16:1],6,{4}6-3[12:1],
1b,{8}2h[12:1],{24}4,,4,{8}3<5[12:1],7,6/3,{24}8v3[12:1],,2,
{8}1,8/3,4,4h[8:1],2>5[16:3],1h[8:1],,8,
7,6,{4}5/4,3>1[12:1],6>4[12:1],
1<7[12:1],{8}5,5,3p1[4:1],4/5,{4}6,
{24}8,,,,,6,{8}5<7[12:1],{24}4,,3,{8}5,1,8/7,{24}4>2[12:1],,6,
{8}5,4/6,8-2[8:1],2-7[8:1],7-3[8:1],3-6-4[24:5],,,{4}1h[8:1],
{8}8/7-4[12:1],{24}4,,4,{8}7,3,1>4[12:1],{24}7,,7,
{8}1,5h[12:1]/6h[12:1],7-5[12:1],8,1-3[12:1],2,7/1,{24}6,,6,
,,4,5<8[12:1],,,{8}3,4>1[8:1],2,8<5[8:1],6,{24}2,,2,
{8}1x<6[12:1],4,1>3[12:1],5,1,7,1/8-6[12:1],{24}2,,2,
{8}8,3,1h[4:1],3,4h[8:1],5h[8:1],7h[8:1],1<6[12:1],
2,3,4h[8:1],5h[8:1],6h[8:1],7h[8:1],{4}8pp3[4:1],
{8}8/7,6,5b,5h[8:1],4,3h[8:1],2,1h[8:1],
3-7[8:1],4,{4}5-1[8:1],{32},,,,,,,,C,,,,,,,3<6[12:1]/2q7[12:1],
,,,,,,,2/3/E5f,,,,,,,,,{8}7p2[12:1]/6>3[12:1],8/7,{4}7/6/E5f,
{8}1>4[8:1],2,1/5<8[12:1],6,5/1>1[4:1],1,{4}5x,
{8}6,6,{4}7-3[12:1],2>5[12:1]/7V15[6:1],2,
{8}2,3,7/5,3/6,5/1>2-4[8:1]*<8-6[8:1],7/3,{64}1,B8/B2,{192},,B7,B3,,,{64}E7,E4,,,,,,,,,,,{8}2>5[12:1],
1,{24}8h[8:1],,,,,6,{8}5>2[12:1],7,{4}6<8[16:1],
{8}3/6,3,5pp5[8:1]*qq5[8:1],2/8,,,{4}1b,
{8}2,5/3,{24}6h[8:1]/4-2[12:1],,,,,6,{8}4,7,8-6[12:1],3,
3,1,2V48[4:1],7-5[16:1],{2}8xw4[8:1],
{4}6h[8:1]/2h[12:1],4h[8:1]/3h[8:1],5h[8:1]/6h[8:1],{8}3/4,5,
6/5,4,{12}8/1,{24}7,8h[12:1],,,{8}6h[12:1]/5h[12:1],4h[12:1]/2h[12:1],3<6[12:1],5/1,
3,7,{4}7h[8:1]/8h[8:1],3h[8:1]/5h[8:1],{8}2/1,3,
6/4,5,{12}4/5,{24}3,4h[12:1],,,{8}5h[12:1]/2h[12:1],7h[12:1]/4h[12:1],1/8-4[12:1],8,
4x,3,{12}2h[12:1],{24}4,3,,,{12}7h[12:1],{24}5,6,,6,{8}4,5/3>8[12:1],
6/4,3,{12}7h[12:1],{24}5,6h[12:1],,1,{12}8h[12:1],{24}3,7,,7,{8}4<7[12:1],5/3,
1,2,{12}7,{24}5,6h[8:1],,,{12}2,{24}4,3,,3,{8}8<5[12:1],7/1,
8,3,{12}2h[12:1],{24}4,3h[12:1],,8,{12}1h[12:1],{24}6,2,,2,{12}5,{24}5,4>2[12:1],,,{8}E8,
E7,{4}5,1,{48}2,,,,,,,,,,,3,
,,,,,,,,,,,4/6,,,,,,,{8}4,5/3,5,{4}2>4[16:1],
5,{8}7,7/4,7,7/5,7,6/4,
5,4/5,3,2h[8:1],5,8h[4:1],1,2,
{4}3h[8:1]/4h[8:1],5/4,2-4[24:1],1-5[12:1],
8-6[24:1],{8}3,3,6/4,6,{4}5h[8:1]/3h[4:1],
5h[8:1],{8}3>1[12:1],4,5<8[12:1],6,5/1-5[12:1],2,
1/8,7,{48}2h[48:1]/4h[48:1],,,,,7h[48:1]/5h[48:1],,,,,,3h[48:1]/1h[48:1],,,,,,8h[48:1]/6h[48:1],,,,,,,{4}2h[4:1]/7h[4:1],
{8},,8/1,6/3,{12}7-4[8:1],{24}7,4-6[12:1],,,{8}2,2,
{12}3x-8-2[16:3],{24}3,8,,,{8}7b,7b,8,2/8pp5[24:5],5,4,
3,2,7,5/6,{12}3,{24}3,4,,2,{8}6h[8:1],5,
1h[8:1],7,{12}8,{24}6,5h[12:1],,,{8}7h[12:1]/4h[12:1],1h[12:1]/8h[12:1],{12}2,{24}2,5,,,{8}6/4,
7/3,{48}3x,4x,{24}5x,{48},,2x,3x,{12}4x,{48}1x,2x,{24}3x,{48},,8x,1x,{12}2x,5xw1[8:1],,,,,,6/4,
{24}7,5h[12:1],,,{8}6h[12:1]/4h[12:1],8h[12:1]/2h[12:1],1/6<4[6:1],5,
{4}6/1h[8:1],{8}2,1/6,{12}7,{24}7,5,,,{8}2-5[12:1],3,
2/8-4[12:1],1,8,3,1h[4:1],2,8,6q3[8:1],
4/5,6,{4}4<5-3-6-2-7-1[2:5],,,,,,,,,,,,6h[4:1]/5h[4:1],
,5h[4:1]/4h[4:1],
,B1,B2,B3,
B4,B5,B6,B7,
B8,E8/E2,A7/A2,B6/B3,
D6/D4,5h[2:1]/4h[2:1],,{16},,,{24},{48}3<6b[12:1]/2q7b[12:1],
,,,,,,,,,,,2/3/E5f,,,,,,,,,,,,,{8}7p2b[12:1]/6>3b[12:1],7/8,{4}7/6/E5f,
{8}1-5[16:1],3,1/7-4[16:1],8,7/3<8[8:1],2,{4}3/6h[8:1],
{8}5,6/3,{4}7>2[16:1]/2>5[16:1],2/7V51[8:1],2/7-3b[16:1],
{8}2>5[8:1],1,2,7,8<7-5[12:1]*>1-3[12:1],4,{64}B7/B1,B6,B2,B5,{16}B3,,,{8}3/5>2[12:1],
4/6,{24}7/5<7[12:1],,,,,4,{8}5,1,{4}1<7-3[8:1],
{8}7,6,5<8[8:1],4/2,5/3>5[4:1],4,{4}3/8h[8:1],
{8}8,7,{24}6-4[12:1],,,,,3,{8}6-8[12:1],2,{4}6/1-5[12:1],
{8}B1,7,8bpp8[8:1]*qq8[8:1],2/6,{4}8,Cf,
4x/5x,6<8[12:1]/3<5[12:1],6/3,5<7[12:1]/2>4[12:1],
5/2,1>4[12:1]/4<7[8:1],4/1qq6[4:1],B3/B4/E4,
{8}4,7/5,{4}6/8<5[12:1],8/5,1>4[12:1],
{8}1/4,5,7-4[12:1]/2-5[12:1],8/1,{2}7s3[8:1]/2z6[8:1],
{8}1/8,8/1,{4}7/3<5[12:1],{8}3/6<8[12:1],7,{4}1/6>3[12:1],
{8}6/2-6[12:1],1,2>7[8:1],7,2,8,{4}8p4[32:3],
{8}2,3,{24}6h[8:1]/4-2[12:1],,,,,6,{8}4,7,{4}8<4[8:1],
{8}3/8,1,2V48[4:1],7-5[16:1],{2}8xw4[8:1],
{1}Ch[4:1],
E
