&title=Lemuria
&artist=Festa (a.k.a. xi)
&first=1.015
&des=Traxeri vs Zamykal
&lv_5=14
&inote_5=(191)
{1}1bv4>2[4:9]*<5[4:9],
{1},
{16},,,,,,,,,,,,8x,1x,2x,3x,
{8}4bxh[2:1],7,7,,6,6h[4:1],,2h[8:3],
{16},,E4,E5,E6,,1,,1,,2/7h[8:3],,D6,A5,D5,A4,
{8}D4,B7/E8,,B2/E2,,B4/B5/E5,1xh[2:1],,
{16}6,,6,,7,,7,,2/8,,2/8h[4:1],,,,2,,
{16}2,3,4,5,8,7,6,5,1,2,3h[4:3],,,,E6,,
{8},B3,,B7,2b,3,4h[4:1],,
{16}6,,7h[4:1],,,,5h[8:3],,,,E8,E1,E2,,2x,,
{16}1x,,8x,,5x,4,3,2,8,7,6,5,3,2,1,8,
{8}6h[4:1],,7x>2[8:1],7x,,
(181){8}4,4-7[8:1],,
(171){4}4/3h[4:1],
(161){16}8,7,6,5,
(151){8}4x,4x<7[8:1],,
(131){8}2,2qq3[8:3],,
(111){4}7xh[4:1],
(102){8},6,4,5,
(191){1}2b-4v1[4:5]/7b-5v8[4:5],
{16},,,,,,,,,,,,2,7,2,7,
{8}1x>4[8:1],6,7,8x<5[8:1],3,2,1b,3bh[4:1]/7b,
{16},,8,8,4,3,2,1,7,6,5,4,B1,B5,B3,B7,
{8}Cf,,82,,
{16}6,5,7,,1,8,2>5[8:1],,
{8},2/6pp2[8:3],,3,3,,4,,1-5[8:1]/3,,1/7,,
{16}6,4,6,,3,,2-5[8:1],,,,28,,,,7-4[8:1],,3v8[8:1],,7,,3,,,,
{8}6-1[8:1],,46,,2,2-5-3[4:1],,1/2,,7,,
{16}6,5,6,,2,1,2,,46,,5/7-5[8:1],,,,7/2-4-8[8:3],,,,1/2,,5,,,,7,,,,6h[4:1]/1,,2,,3,,2,4,3,5,4,6,5,7,4w8[8:1],,,,4b`Cf,,,,26,,2-6[8:1]/6,,,,4-8[8:1],,,,3,,,,
{16}2,,2,3,4,5,8,7,6,5,4-7[8:1]/8-3[8:1],,,,8x/4xpp3[8:3],,,,2,,2,,,,1x-3[8:1]*-7[8:1],,,,1-5[8:1],,,,1,,6-8[8:1],,,,4/6,,,,1bx/3bxh[8:1],,,,3,4,3,,6,5,7,,3,4,1,,1x/6xh[8:1],,,,6,5,6,,3,4,2,,6,5,8,,2b/4b,,15,,,,7b/8b,,25,,,,6b/5b,,8h[4:1]/3-7-2-5[8:3],,,,,,,,,,6h[8:1],,,8h[8:1]/4h[8:1],,,2/6,,
6x-1[8:1]b/2x-5[8:1],,,,2b/6b<8q2[4:5],A1f/D2,,,,,,,,,,,,,,,3,,,,4,,,,5bqq1[4:3],,,,,,,,,,,,,,,,E7f,,,,,,,,1,,,,
{8}7x/2x,,3,4,3,4,5h[4:1],,4,5,4,5,6h[4:1],,5,6,5,6,8>7b[4:2],,2h[4:2],,,,,,,,,,
{8},,6b/5b,48,,1b/2b,84,,3b/7b,1b/5bxh[8:5],,,
{16}E3,E4,E5,E6,E7,,,,
{8}2x/5x,6,4,3/7,
{16}2,1,2,1,{12}3x,3x,3x,
{8}4<7[8:1],,
{16}8,1,2,3,4w8[8:1]b,,,,4,,,,
{8}2b/6b,3/5,,4b/6b,3/7,,2b/6b,4bx>2-5[8:4]/8b,,,8-4[8:1]b,,8x,,1b/2bh[4:1],,5,6,
{16}1,8,1,8,2x/7x,,5,4,6,3,5,2,4xh[4:1],,,,2,4,3,5,4,6,5,7,
{16}1,5,3,7,2b<7[8:1],,,,2/3,,3,,6,,5,,
{8}4/7-4[8:1],,3/7,1x>4[8:1],,{24}5,6,7,8,,,8,,,
{16}1b/2,,1/2b,,6,5,7,,7/8b,,7b/8,,2,2,{24}7,6,5,
{4}1b-3[8:1]/4b-8[8:1],1b-5[8:1]/4b,1b<3b[2:1]/6b,1b/2bh[8:3],
{8},,B2,C,B6,,,,
{8}A4,C,A8,,,,B6,B2,
{8}1/5,1/5,2/6,2/6,3/7,3/7,{16}4,8,3,7,
{8}2,2/6,1/5,1/5,4-7b[8:1]/8-3b[8:1],4/8,,,
{16}4/8,,4/8,,4/8,,3,4,3,,1/5,,1/5,,6,5,
{16}7x,4,5,4,8x,3,4,3,1x,2,1,2,8x,1,7,8,
{16}6x,1,5,2,4,3,5,4,6x,5,7,4,8,3,1<3[8:11],2,
{1}1bh[8:15],
{8},,,,,,,2x-6b[8:1],
{8},1bs5[8:7]/2,7bz3b[4:3],,,,,,
{16},,,,,,,,E2,B2,B3,E4,E8,B7,B6,E6,
{16}1xh[16:3],,,2h[16:3],,,3,,5xh[16:3],,,6h[16:3],,,7,,
{16}2xh[16:3],,,1h[16:3],,,8,,5xh[8:1],,,4h[8:1]/6h[8:1],,,4/6,,
{16}1xh[8:1]/2xh[8:1],,,1h[8:1]/8h[8:1],,,7/8,,6xh[8:1]/8xh[8:1],,,1h[8:1]/7h[8:1],,,2/8,,
{8}4/6,B3,E3,,1x-5[8:1],1x,6,7,
{16}8b,,3,4,3,,1x/5x,,6,5,6,,3x/8x,,3,4,
{16}2,,1x/6x,,6,5,7,,2x,1,2,1,3x,4,3,4,
{16}2x-6[8:1],,,,{32}2b/8,Cf,{16},8,,,,7,1,7,1,6,8,
{16}5-7[8:1],,1,1,5,,1,,8-4[8:1],,2,2,8,,3,,
{16}3,,6,5,7,5,8,,8-4[8:1],,2x,,2x/8,,,,
{16}3/5,,3,4,2,4,1,,1-5[8:1],,7x,,7x/1,,,,
{16}4/6,,7,8,7,,3/5,,3/5,,2,1,3-8[8:1],1,2,,
{16}3/7-4[8:1],,7,,1/7,,1,,1-5[8:1],8,2,7,{64}1x,Cf,,,{16},,,
{16}4b/6b,,7,8,7,,4x/6x,,8,1,8,,4x/6x,,1,2,
{16}1,,4x/6x,,2,3,2,,6,4,6,4,7,5,8,,
{16}1bh[4:1]/7b-4[8:1],,,,7,,3h[4:1],,,,5,4,6,5,6,5,
{6}7b,3h[12:1]/4h[12:1],2h[12:1]/8h[12:1],5xh[12:1]/6xh[12:1],3h[12:1]/7h[12:1],1h[12:1]/5h[12:1],
{8}1x-4-2[4:1]/5x-8-6[4:1],,1b/5b,,,1x,1x/8x,,
{8}3v8[8:1]/7v4[8:1],,3/7,,5,1x,1x,3/7,
{16}2b-4[8:1],,6,,2,,7,7,5,6,5,6,4h[4:1],,8,,
{16}8,5,7,4,6,3,5,2,4b,2b,6b,4b,8b,,,,
{16}3x,5,4,5,2h[8:1],,6x,4,5,4,7h[8:1],,2x,8,1,8,3h[8:1],,7x,1,8,1,6h[8:1],,2,3,4,5,1,2,3,4,1w5[8:1]/5,,,,1b,,,,8/3,,7,7,4,6,2,5,3h[4:1],,{40}A1,D1,A8,D8,A7,{8}D7,52,{16}3,4,1,,73,,,,26,,7<4-8[8:3],4,6,,A7f/3,,,,2,,2,,,,83,,2>5-1[8:3],5,3,,A2f/6,,,,7,,7,,,,2b/5,,3,4,1b,,6,5,8b,,2,1,3b/8b,,3/8,,52,,3,,4/7,,6,,{24}4q8[8:1]/5<8[8:1],3,2,1,,,{8},,{16}2x,1,3,1,4h[8:1],,6x,5,7,5,8h[8:1],,2,1,2,3,2h[8:1],,6,5,6,7,6h[8:1],,2,4,3,7,5,6,1,8,2V48[4:1]/7V51[4:1],,,,7b/2b,,Cf,,,,7,7,{24}1,2,3,8,7,6,{12}5h[12:1]/3bh[12:1],,2h[12:1]/1bh[12:1],,3b/8b,,1h[12:1]/6bh[12:1],,4h[12:1]/3bh[12:1],,6b/2b,,{16}7bx/5bx,,3,5,4,6,2h[8:3],,{32}D1,D8,D7,D6,D5,D4,D3,D2,D1f,,,,,,,,{16}3x/7x,,6,4,5,3,7h[8:3],,{32}E1,E2,E3,E4,E5,E6,E7,E8,E1f,,,,,,,,{16}2,7,2,7,2,6,2,6,2,5,2,5,3,4,2,5,1,6,2,7,3,8,4,7,{32}3,4,5,6,7,8,1,2,
{4}3v8[8:1]/7-4[8:1],3b<7-1-6-4[1:2]/7x>3-5-2-8[1:2]b`Cf,,,,,,,,,,
{8}1h[8:1]/5h[8:1],,2h[8:1]/5h[8:1],,5h[8:1]/3h[8:1],,8b/4b,
{16}7,7x,5,6,2x,4,3,7x,8,6,4x,5,3,1,2,1,3,4,2,5,3,6,4,7,2,6,1-5[8:1],8,2,7,1>1[8:25],,,,
{1}1b>1v4b[4:15],,,,{4},
E
