&title=Para Para Sakura
&artist=郭富城
&first=0.03
&des=Kanata as"さくら"
&lv_5=13+
&inote_5=(151)
{1},,
{4}6p4[4:2],,,{8}3,3qq4[8:5],
{4},,6h[8:4],,
{1}4>6[2:3],,
{4}3qq3[4:2],,{8},6h[8:3],,,
{4}5pp4[8:4],,,{8}7,7p4[8:5],
{1},
{4}7-2[4:2],4,4,4,
{4}2-7[4:2],5,5,5,
{4}7-4[16:4],4,3-8[16:3],{8}5,5,
{16}5bx,,61,,7,8,,26,,2,1-5[8:1],,37,,1,,
{4}7-2[2:1],4,4,4,
{4}8q5[8:1],1>4[8:1],6h[4:1],5,
{4}1b/7-4[8:1],2-6[8:1]/7b,8-5[8:1]/2b,{8}3qq4[4:3]/8b,2bq5b[8:5],
{1},
{4}4b-2[8:1],5b-7[8:1],4b-1[8:1],8bpp5[2:1],
{4}3h[2:1],,{8},4xv2<6[2:1],,,
{8},,,5xpp6[16:3]*qq4[16:3],,,,,
{8}4x/6x,,1h[8:1]/2h[8:1],,6h[8:1]/7h[8:1],,6,5<2[8:2],
{8}4,4,,3h[8:3],,,8,47,
{8}6,6qq5[8:2],,3,,,2,3/7,
{8}4,8qq3[8:3],,3,,,1,,
{8}2-5[8:1]/7,,8h[8:2],,4,,3x,3,
{8}4/6,5-2[8:1]/7,,6,,3-8[8:1]/4,5,6x,,
{8}4/6-1[8:1],3,2x,,3>8[8:1]/5,6,7x,
{8},3/6-1[8:1],4,5x,{16}4,8,3,7,2,6,1,5,
{8}2-8[8:1],,4-6[8:1],,1V35[4:1],,6,6,
{8}7,8p6b[16:5]/1pp5b[16:5],,E8/E2/E1f/B1/B8,,,,6,
{8}7h[4:1],8,2h[4:1],1,8x-3-5[16:3],,2,2x,
{8}1,8/6qq3b[8:3],,8x,,,,2,
{8}3/4pp4[4:1],,2qq3[4:1],,,,4,5,
{8}7,6/5>1b[16:5],,E7f/B6/B7,,,,2,
{8}1>4[8:1],2,8,7h[4:1],,8,17,2-6b[8:1],
{8}7-3b[8:1],2,7,1,{16}1,8,1,8,1,8,1,8,
{8}2b-4[8:1],3,1-5[8:1],8,2<7[8:1],3,4-8[8:1],5,
{8}2-4[8:1],3,1-5[8:1],7,8-6b[8:1],7,1b/8b,,
{8}3/4-7[8:1],2,1-5[8:1],2,3>1[8:1],4,6,5,
{16}1b/4b,,5/2,,6,4,,7/5,,3,4-8b[8:1],,6/2,,5/4,,
{8}7-5[8:1],6,8-4[8:1],1,7>2[8:1],6,5-1[8:1],4,
{8}7-5[8:1],6,8-4[8:1],2,1-3[8:1],2,8b/1b,,
{8}6/5-2[8:1],7,8p4[8:1],1,2>4[8:1],1,5,6,
{16}7,5,7,5,6,4,6,4,5,3,5,3,4x,,,,
{4}7-1[8:1],6-2[8:1],5-8[8:1],{8}3,3,
{8}4x/6x,B7/E8,3x/5x,E2/B2,4x>2[8:1]/6xp1[8:1],,4x/6x,,
{4}2-8[8:1],3-7[8:1],4-1[8:1],{8}6,6,
{8}5x/3x,B2/E2,6x-8[8:1]/4x,,5x-2[8:1]/6x,,5x/6x,,
{4}7-4[8:1],3-8[8:1],5-8[8:1],{8}2,2,
{8}4x/6x,B7/E8,3x/5x,E2/B2,4x>2[8:1]/6xp1[8:1],,4x/6x,,
{8}8<5[8:1],,3>8[8:1],,6h[4:1],,2,36,
{16}4,5,4,5,4,5,4,5,4qq5[4:1],5,4,5,4,,,,
{4}6b,6/E5,6/E4,6/E3,
{8}3b/4b,3b/4b,{4}3/E5,3/E6,3/E7,
{4}6b,6/E5,6/E4,6/E3,
{8}2b/4b,3,7/5,6,{16}1,2,3,4,8,7,6,5,
{16}2/4,,4,,2/5,,3,4,,4,3,,25,,6,,
{16}7/5,,5,,7/4,,6,5,,5,6,,74,,3,,
{16}2/4,,4,,2/5,,3,4,,4,2,,18,,7,,
{16}7/5,,5,,7/4,,6,5,,5,7,,81,,2,,
{16}2/4,,4,,2/5,,3,4,,4,3,,2>5b[8:1]/5-8b[8:1],,1,,
{8}2b/5bqq6[2:1],,,,,,,,
{32}3b,E3,E2,A1f,,,,,6b,E7,E8,A8f,,,,,4b,E4,E3,A2f,,,,,5b,E6,E7,A7f,,,,,
{4}3qq4[4:6],5,5,5,6,6,6,6,
{4}7>1[8:1],4,5>3[8:1],{8}6,7V16-2[8:5],
{4}3x,3,3,3,
{4}7pp6pp5[4:6],5,5,5,4,4,4,4,
{4}2<8[8:1],5,4<6[8:1],{8}1,1,
{16}2,7,2,7,3,6,3,6,4,5,4,5,3,6,2,7,
{8}1-3[8:1],2,8-4[8:1],7,6-1[8:1],7,3-8[8:1],2,
{8}7-5[8:1],6,1-5[8:1],2,{32}8x-4[8:1]/1,7x,6x,,,,,,8/1x,2x,3x,,,,,,
{8}3x/4x-7[8:1],2,1-6[8:1],3,4-8[8:1],2,1-5[8:1],3,
{16}4b,,3,,17,17,,2/4,,56,5-1[8:1]/6,,3/7,,5b/6b/Cf,,
{8}8-6[8:1],7,1-5[8:1],2,3-8[8:1],2,6-1[8:1],7,
{8}2-4[8:1],3,8-4[8:1],7,{32}1x-5[8:1]/8,2x,3x,,,,,,1/8x,7x,6x,,,,,,
{8}1-5[8:1],2,3-6[8:1],2,1-5[8:1],2,3-6[8:1],2,
{16}1b,,2,,4/7,4/7,,8,,3,4-8[8:1],,2/5,,3b/4b,,
{8}1-5[8:1],2,3-7[8:1],2,1-5[8:1],2,3-7[8:1],2,
{16}1b,,,,{16}1,7,8,7,1,6,2,5,3,4,2,5,
{8}1-6[8:1],2,3-6[8:1],2,1-6[8:1],2,3q8q5<7[8:6],2,
{4}1h[8:1],2h[8:1],3h[8:1],4h[8:1],
{8}1<6[8:1],3,4-8[8:1],2,1<6[8:1],3,4-8[8:1],2,
{16}1b,,2,,3/7,,4,6,5,7,4,8,3,1,2,8,
{16}1b,7,2,6,3,5,4,6,3,7,2,8,5,6,4,5,
{16}3b,4,2,6,4,8,5,7,4,6,2,5,1,4,2,6,
{16}1b,7,5,6,3,4,2,5,8,7,1,6,2-6b[8:1],7,1,8,
{1}2b,
