&title=Meta-Mysteria
&artist=DJ Noriken
&first=0
&des=Guilty
&lv_5=14+
&inote_5=(205)
{1},,7<3[4:3],2>6[4:3],{2}7^4[4:1],2^5[4:1],6w2[2:1],,
{1}2>6[4:3],7<3[4:3],{2}2^5[4:1]
,7^4[4:1],
{8}1h[4:1],,4,2/5,3/6,7/4,{16}6,5,6,,
{8}7/4,3,2/5,6h[2:1],,{32}7x,,,,,,,,1x-3-8-4[2:1],,,,
{8},4,5,6,7-3[8:1],,7,,
{8}2/5,6,7/4,3h[2:1],,{32}2x,,,,,,,,8x-6-1-5[2:1],,,,
{8},5,4,3,2-6[8:1],,2,,
{8}7h[8:1]/4,3,2,3/6h[8:1],2-8[8:1]*-4[8:1],1,2,,
{8}2h[8:1]/5,6,7,6/3h[8:1],7-1[8:1]*-5[8:1],8,7,,
{8}2-4[8:1],,1/2,,7h[8:1],5,{16}4w8[8:1],6,3,5,
{4}Cf,,,A6/B6/C/B2/A2,
{4}8h[2:1],B8,1h[2:1],B1,
{4}7h[2:1],B7,2h[2:1],B2,
{4}6h[2:1],{8}5,4,3h[2:1],,B3,,
{8}5,6,7h[8:1]/2h[8:1],,2/7,,,,
{4}1h[2:1],2,8h[2:1],7,
{4}2h[2:1],3,7h[2:1],6,
{4}3h[2:1],{8}4,5,6h[2:1],,7,,
{8}4,3,2/7,6,5/3,4,1b/7b,,
{8}3,4,4,2,{16}6,5,6,,{8}1,3h[16:1]/5h[16:1],
{8}3/5,8,{16}2,4,2,,{8}7,5,5,6,
{8}3h[16:1]/4h[16:1],3/4,5,2,2,4,2,6,
{8}3,4,4,2,{16}6,5,6,,{8}1,{16}7,8,
{16}7,1b,,4,1b,,6,1b,,3,1b,,7,1b,,2,
{16}5b,,8,5b,,1,5b,,7,5b,,3,5b,,6,5b,
{8}4,4,3/5,,6,6,7/5,,3s7[4:1],,7s3[4:1],,,,Cf,,
{1}8x<8[1:1],{4},,{16}1,8,2,7,{4}1/8,
{16}2/7,3,4,5h[16:3],8,,8,,5,4,3,2h[16:3],5<1[4:1],,5,,
{8}1>5[4:1],,5-1[4:1],,1,,C,,
{16}7/2,6,5,4h[16:3],1,,1,,4,5,6,7h[16:3],4>8[4:1],,4,,
{8}8<4[4:1],,4-8[4:1],,8,,C,,
{8}1h[4:1],7,5h[2:1],,6,8,2h[4:1],4,
{8}6h[4:1],5,7,1,3/4,7,5/6,2,
{32}E2,E3,E4,E5,E6,E7,E8,E1,E2,,,,,,,,{8}5h[4:1],,3<6>2[4:3],,1,8,7-5p1[4:1],,7,,,,
{8}1h[4:1],,8v6^7-4[8:3],,8,1,2,,
{12}2,4,3,7,5,6,1,3,2,8,6,7,
{8}4h[4:1],,6>3<7[4:3],,8,1,2-4q8[4:1],,2,,,,
{8}8h[4:1],,1v3^2-5[8:3],,1,8,7,,6/4x,3/5,2/4,,
{8}3/4,4/5,5/6,,{12}7,4,4,6,3,3,
{8}5b-8[8:1],4,5,2-6[8:1],1,2,7-4[8:1],8,
{8}7,1-5[8:1],8,1,8^5[8:1]*^3[8:1],,8,,
{8}4,3,2/4,5,6/4,3,1/4-7[8:1],5,
{8}4-1[8:1]/2,3,6/4-7[8:1],5,2b/4,3b,3b,,
{8}2-5[8:1],7,2,8-4[8:1],3,8,3-8[8:1],5,3,7-4[8:1],1,7,3,2,1/4,5,
{8}6/1-5[8:1],1,1/7-4[8:1],7,7/2-6[8:1],2,2/8,8,
{12}8,5,5,2,4,4,7,5,5,3,4,4,
{8}5b,6b/4b,2b-6[8:1]/8b,,2,7-4[8:1],8,7,1-6[8:1],3,1,4-8[8:1],3,4,1b,,
{8}1,2,3/1,8,7/1,2,4/1-6[8:1],8,
{8}1-4[8:1]/3,2,7/1-6[8:1],8,3b/1,2b,2b,1,
{2}7/8z4[4:1],{16}1,,,7/5,,,2/4,,{4}6z2[4:1]/5,,{16}7,,,5/3,,,8/6,,
{8}1/2,,{16}3,5,3,5,4,4,4,,7,5,6,3,
{12}4,2,2,4,1,1,4,8,8,4,7,7,
{1}4>4[4:11],,,{8},,,{16},,4,5,2,7,4,5,2,7,
{1}Cf,,
{4},3h[4:1],{8}4,3,{4}4h[4:1],3,6h[4:1],{8}5,6,{4}5,
{4}6/E5,6/E4,6/E3,6/E2,6/D1,{8}6/D2,A2,{4}6/D3,6/D4,
{4}2/E5,{8}2/E6,A6,2/E7,A7,2/E8,,
{8}1/3,,2/8,7,6/5,4,{16}3<6p1V35[4:6],5,3,5,
{8}3,,8,,7,,7,,6,,6,7,8,{24},,,{4}6<2V86[1:1],
{4}6,{8}3,3,4,4,5,5,
{8}4,,2/4,4/5,7/5,1/8,2/7,,
{8}2xq5[4:2]/7x,,,8-4[8:1],,8,,B6/B3,
{8}7xp4[4:2]/2x,,,1-5[8:1],,1,,B3/B6,
{8}2x/7x,,7/5,5/4,2/4,8/1,6/5,3/4,
{8}1/8,,2-5[8:1],2,8-4[8:1],8,1-6[8:1],1,
{4}1b/5,,Ch[2:1],,
{4}E7/E3,,Ch[2:1],,
{4}E1/E5,,1h[8:3]/5h[8:3],,
{32}1b/5b,2/6,3/7,4/8,1/5,,,,{4},,{8}2/8-4b[8:1],6/4,
{4}8b-2b[8:1]/3,8b-6b[8:1]/7,8b-3b[8:1]/4,8b-4b[8:1]/5,
{8}8b/1,,3-1[8:1],4,5b-7[8:1],4,8b-4[8:1],,
{8}8,,6-8[8:1],5,4b-2[8:1],5,1b-5[8:1],,
{8}1,,2x-7[8:1]/6x-3[8:1],3/7,2/6,,1x-5b[8:1]/5x,,
{4}1b-7b[8:1]/6,1b-3b[8:1]/2,1b-6b[8:1]/5,1b-5b[8:1]/4,
{8}1b/8,,6-8[8:1],5,4b-2[8:1],5,1b-5[8:1],,
{8}1,,3-1[8:1],4,5b-7[8:1],4,8b-4[8:1],,8,,2/4x,4/5,7/5,{16}8,1,7,,3,5,
{8}4-2b[8:1],4,4b-7b[8:1]/5x,,4b-1b[8:1]/3x,,4b-8b[8:1]/5x,,
{8}4b/3x,,2-5[8:1],1,7-4[8:1]/2b,8,7b/1-5[8:1],,
{8}1b,,6-1[8:1],5,3-8[8:1]/6b,4,3b/5-1[8:1],,
{8}5b,,3-8[8:1]/7-4[8:1],2/6,3/7,,5x-3b[8:1]/1x,,
{8}5b-7b[8:1]/6xx,,5b-2b[8:1]/4x,,5b-8b[8:1]/6x,,5b-1b[8:1]/4x,,
{8}5b/6x,,7-4[8:1],8,2-5[8:1]/7b,1,2b/6,7,
{8}8b,,{8}8/3,{32}1/2,3,4,5,{8},{32}8/7,6,5,4,{8},{16}1/2,,
{16}8/3,,1/8,,{32}2/7,3,4,5,6,7,8,1,{4}2b/6b,{8}4V28[4:1],4,
{8}6,6,7b,,2/4,5,6V42[4:1]/4,7,
{8}8/6,,8,8,1/7,2,3V17[4:1]/1,4,
{8}5/3,,4,4,5/3,6,7V53[4:1]/5,8,
{8}1/7,,2-5[8:1],2,8-4[8:1],8,3^8[8:1],3,
{8}3b/5,,{16}7,5,6,,2,4,3,,7V15[4:1],5,7,5,
{8}7,,3,3,6h[16:1]/4h[16:1],6/4,{16}3V51[4:1],5,3,5,
{8}3,,7,7,8h[16:1]/6h[16:1],8/6,{16}2V48[4:1],1,3,8,
{8}2,,7,7,{32}1/2,3,4,5,,,,,8/7,6,5,4,{8},
{8}1V73[4:1]/2,,3/1,4,5^8[8:1],5,4,3,
{8}2V48[4:1]/1,,8/2,7,6^1[8:1],6,5,4,
{8}4V62[4:1]/3,,2/4,1,8^5[8:1],8,1,2,
{8}3V15[4:1]/4,,5/3,6,7,7,8/6,1,
{16}2,4,2,4,3,4,3,4,4b,6,2,4b,3,5,4b,,
{16}1b/7b,,,,2,8,2,8,1bx,1,1,1bx,1,1,1bx,1,
{32}2bx/8bx,3,4,5,{8},{16}7,8,7,8,{32}7,6,5,4,{8},2,1/2,
{32}2/8,3,4,5,,,,,{16}7,4,6,4,6,3,7,2,8,1,7,2,
{8}6,3,3,7,{16}2,4,3,,{8}8,6h[16:1]/4h[16:1],
{8}6/4,1,{16}7,5,6,,{8}2,4,4,3,
{8}6h[16:1]/5h[16:1],6/5,4,7,7,5,{16}7,3,6,4,
{2}5bh[4:1],{16}3,6,4,5,2,7,4,5,1b/Cf,
