&title=一笑懸命
&artist=遊助
&first=0
&des=MUFC2@chorser
&lv_5=13+
&inote_5=(138)
{4},
(276)
{2},
(138)
{16}3h[16:3]/5h[16:4],,,,3,,,,3h[4:1]/5h[4:1],,,,,,,,
{4}4h[4:1]/6h[4:1],,3h[4:1]/5h[4:1],,
{16}2h[16:3]/4h[16:4],,,,2,,,,2h[4:1]/4h[4:1],,,,,,,,
{4}36,36,{8}5w1b[12:1],,Cf,,
{8}6h[4:1]/5,8,5h[4:1],8,6h[2:1],,5,4,
{16}3<1[4:1],,2,,1qq5[32:9],,3,,4h[16:4],,,,,,3,,
{8}2h[4:1]/4,1,4h[4:1],5,3h[2:1],,4,5,
{16}6V42-8[4:1],,7,,8V62b[4:1],,7,,5h[4:1],,,,,,5,,
{8}4h[8:1]/6,8,7h[8:1]/5,1,2h[4:1]/4,3,4,5,
{8}6>8[4:1],7,8pp5[32:9],7,6h[4:1],,,4,
{8}3-5[12:1]/5,2,1,8,7-1[12:1]/6,5,4,3,
{8}54,36,2>7[4:1]/7<2[4:1],18,2b/7b,,,,
{8}E8,1h[8:1],E7,1h[8:1],E6,1h[8:1],E5,1h[8:1],
{8}E4,1,1^6[8:1],,6v5[8:1],,,,
{8}E2,8h[8:1],E3,8h[8:1],E4,8h[8:1],E5,8h[8:1],
{8}E6,8,8q4[8:1],,3-6[8:1],,,,
{8}E8,1h[8:1],E7,1h[8:1],E6,1h[8:1],E5,1h[8:1],
{8}E4,1,1s5[4:1],,6v3[8:1],,,,
{8}E2,8h[8:1],E3,8h[8:1],E4,8h[8:1],E5,8h[8:1],
{8}4,35,26,71,8b-4[12:1]/3b-8[12:1],2b/7b,3b/8b,,
{16}4h[8:1]/1,,2,3,4h[8:1]/8,,1,,1/5h[8:1],,8,7,6h[8:1]/1,,1,,
{16}4h[8:1]/1,,2,3,4h[8:1]/8,,1,,1>4[8:1]/5h[8:1],,8,7,6/1b,,,,
{16}2/4h[8:1],,2,4,1,,1,8,2,,2,4,1,,1,8,
{8}2,{16}2,7,{8}1,58,2b<7[12:1]/6bq2[8:1],1b/5b,6b/2b,,
{8}5bhx[4:11]/E4,B4,E2,B1,B8,,A6f/E7/B6/E6,,E8,B8,E4,B4,B5,,A2f/E2/E3/B2,,
{8}3x-7[12:1],3x,3x,,8x-3[12:1],8x,8x,,
{16}46,,4,8,4,,42,,43,,42,,41,,48,,
{16}3>8[12:1]/8<5[12:1],,,,8-4b[12:1]/3,,,,8/6<1[12:1],,,,26,,3,,
{16}8b<5[12:1]/5b>2[12:1],,,,5-1b[12:1]/8,,,,5/3-8[12:1],,4,,37,,6,,
{16}5-8[12:1]/2-5[12:1],,,,2<7b[12:1]/5,,,,2/4q8[12:1],,,,48,,2,,
{16}3/1b-5b[12:1],,4>1[12:1],,1<6[8:1],,4,,5bxv2[12:1],,,,B8f,,,,
{16}6<1[12:1]/1>4[12:1],,,,1-5b[12:1]/6,,,,1/3>8[12:1],,,,3/8,,7,,
{16}6/8b<5[12:1],,2-6[12:1],,8V61-5-3b[8:3],,2,,,,,,Cf,,,,
{16}1,,1,,28,,4,,17,,5,,24,,31,,
{16}4b-8b[12:1]/8,,1b>4[8:1],,4bx<7[8:1],,1bx,,8bxv3b[12:1],,,,B5f,,,,
{8}46,37,46,37,4h[8:1]/6h[8:1],,26,17,26,17,2>4[12:1]/6>4[12:1],17,26,,Cf,,
{8}53,62,53,62,5h[8:1]/3h[8:1],,73,82,73,82,7<5[12:1]/3<5[12:1],82,73,,Cf,,
{8}46,37,28,37,4h[8:1]/6h[8:1],,26,17,26,35,2>4[12:1]/6>4[12:1],17,26,,Cf,,
{8}35,62,17,62,3h[8:1]/5h[8:1],,73,26,
{8}1v4[8:1]/5v8[8:1],37,15,,8b-5[8:1]*>5[8:1],,,,
{16}3-1[12:1],,4,5,3,,5h[8:1],,3-7[12:1],,4,5,3,,5h[8:1],,
{16}2-6[12:1],,3,5,2,,5h[8:1],,1,,24,,8,,35,,
{16}6-8[12:1],,5,4,6,,4h[8:1],,6-2[12:1],,5,4,6,,4h[8:1],,
{16}8,,56,,1,,34,,E1,E8,E7,E6,E5,E4,E3,E2,
{4}7x>2p5[2:3]/4hx[4:7],,,,,,,{8},3,
{4}2qq3pp4[2:3]/6h[4:7],,,,,,,{8},7,
{4}8z4V62[2:3]/3h[4:1],,3h[4:1],,3h[4:1],,3h[4:1],{8},1,
{4}8-4[8:5]*-4[8:5]/2h[4:1],,2h[4:1],,
{16}3b/5b,,,4hb[16:3]/7hb[16:3],,,,,2b-5b[12:1]/6b-1[12:1],,4b/8b,,2b/6b/Cf,,,,
{16}8<5[12:1]/4-8[12:1],,,,8>3b[12:1]/4,,,,8/6-1[12:1],,5,,61,,3,,
{16}4/7b,,2,8,3-5[12:1],,1-6[12:1],,3b-7b[12:1],,1b,,3b/A6f,,,,
{16}8<5[12:1]/5-1[12:1],,,,8>3[12:1]/5,,,,8/4v7[12:1],,5,,41,,2,,
{16}3/7b-3b[8:1],,4<7[8:1],,7>2[8:1],,4,,5bxv8[12:1],,,,E3f,,,,
{16}4>1[12:1]/8-4[12:1],,,,4<7b[12:1]/8,,,,4/2v5[12:1],,1,,25,,6,,
{16}7/5b<8[12:1],,3-7[12:1],,5-1-4V62b[8:3],,3,,,,,,Cf,,,,
{16}1,,1,,28,,6,,57,,4,,28,,61,,
{16}7b-3b[12:1],,1b-5[12:1],,7bx,,1bx,,{32}A7,D7,A6,,A1,D2,A2,,A8f,B8,C,B4,{8}A4,
{16}35,,2,4,1-7[16:1],,26,,1,,5,,34,,2,5,1,,24,,1,,35,,2>4[12:1]/6>4[12:1],,B1/B7,,,,,,
{16}64,,7,5,8-2[16:1],,73,,8,,4,,65,,7,4,8,,75,,8,,64,,7<5[12:1]/3<5[12:1],,B8/B2,,,,,,
{16}2h[8:1]/8,,4,2,6-4[16:1],,37,,6,,3,,3h[8:1]/8,,1,4,7,,56,,2,,35,,2>4[12:1]/6>4[12:1],,B1/B7,,,,,,
{16}7h[8:1]/1,,5,7,3-5[16:1],,62,,3,,6,,6h[8:1]/1,,8,5,2,,43,,7,,64,,7<5[12:1]/3<5[12:1],,B8/B2,,,,,,
{8}62,35,6>4[12:1]/2>4[12:1],17,62,,73,82,73,64,7<5[12:1]/3<5[12:1],82,3/7>5[12:2],,,,
{16}3,,4,5,3,,5h[8:1],,3,,4,5,3,,5h[8:1],,
{16}2,,3,5,2,,5h[8:1],,1,,24,,6,,35,,
{16}2,,5,4,6,,4h[8:1],,6,,5,4,6,,4h[8:1],,
{16}7,,56,,2,,34,,1bq5[8:1],,7bp3b[8:1],,1bx,,7bx,,
