&title=人生
&artist=king822kk
&first=0
&des=king822kk
&wholebpm=92
&shortid=1672025
&genre=niconico&VOCALOID™
&version=maimai2
&lv_5=14.3
&inote_1=&title
&inote_5=(92)
{8},,5,4,5-7[0##0.1]/4-2[0##0.1],
{16}4,5,5-7[0##0.1]/4-2[0##0.1],,5,4,5-7[0##0.1]/4-2[0##0.1],,
5-1[0##0.1]/4-2[0##0.1],,5-7[0##0.1]/4-8[0##0.1],,
{32}5,4,5,4,5x-7x[0##0.1]/4,,,,,
5,4,,5/4-2[0##0.1],,,,5-7[0##0.1]/4,,,,
3/5,,4,,6/4,,5,,4-8[0##0.1]/3-1[0##0.1],,,,
1x,,8,,8-4[0##0.1]/1-3[0##0.1],,,,8x,,1,,1-5[0##0.1]/8-6[0##0.1],,,,
{16}1,8,
{8}8-4[0.##0.1]/1-3[0.##0.1],8x-6[0.##0.1]/1x-5[0.##0.1],
8x-4[0.##0.1]/1x-3[0.##0.1],,
{32}3,4,,6,5,,4,5,3,4,3,6,5,6,3,4,3,4,2,5,2,5,1,6,1,6,8,7,8,7,
6,5,6,5,4,7,4,7,3,8,3,8,2,1,2,1,
{32}4,5,4,5,7x,4,5,3x,5,4,5,8x,5,4,5,2x,5,4,5,6x,5,4,5,1x,5,4,5,2b/7b,,,,4,,4,,4,,4,,
{4}4w8[0.2##0.4],
{32},,3,4,,5,6,,3h[8:1]/5,,,,,,
4,3,,6,5,,4,5,,3,4,,2,3,,3,4,,4,5,,5,6h[8:1],,,,5,,
3,4,,2/5h[8:1],,,,4,5,,3/6,,5,6,,7h[8:1]/4,,,,4,3,,2h[8:1]/5,,,,5,,
{8}2q5[0.1##0.8],,,
{32},,7,8,,1,2,,3h[8:1]/5,,,,,,
4,3,,6,5,,4,5,,3,4,,2,3,,3,4,,4,5,,5,6h[8:1],,,,5,,
3,4,,2/5h[8:1],,,,4,5,,3/6,,5,6,,7h[8:1]/4,,,,4,3,,2h[8:1]/5,,,,5,,
2/5,3,4,,3/6,5,4,,7/4,5,6,5,6b,,,,,,,,
{24}1,1,2,2,,8,8h[8:1],,1h[8:1],,,8,8,7,7,,8,8h[8:1],,7h[8:1],,,5,5,4,4,,5,
5h[8:1],,4h[8:1],,,3,3,4,4,,1,1h[8:1],,2h[8:1],,,
1,1,2,2,,8,8h[8:1],,1h[8:1],,,8,8,7,7,,8,8h[8:1],,7h[8:1],,,5,5,4,4,,5,
5h[8:1],,4h[8:1],,,3,3,4,4,,1,1h[8:1],,2h[8:1],,,8,8,7,7,,8,8h[8:1],,7h[8:1],,,5,5,4,4,3,3,2,2,1,1,8,8,7,7,6,6,5,5,
{32}4,3,2,1,8,7,6,5,,,,
{8}2,6,1,5,
{32}3,4,3,4,3,4,3,4,5,6,5,6,5,6,5,6,4,5,4,5,4,5,4,5,3,4,3,4,3,4,3,4,2,5,3,4,2,5,3,4,
1,7,1,7,1,7,1,7,4,6,4,6,4,6,4,6,
5,7,5,7,5,7,5,7,1,8,1,8,1,8,1,8,
3,6,3,6,3,6,3,6,8,7,8,7,8b,7,8,7,1b,6,8,7,1b,6,8,7,1b,6,8,7,1b,6,8,7,1,6,8,7,
2,1,2,1,2b,1,2,1,3b,8,2,1,3b,8,2,1,
2,4,3h[8:1],,,,,,7,5,6h[8:1],
{32},,,,2b,,,3b/5b,,,6b-2[0##0.1]/4b,,,,
{64},,,,,
{32}34,,45,,65,,4,3,35,,5,6,64,,4,3,35,,5,6,64,,,
{64},
{32}3b,,,2b,,,1b-5[0.2##0.2],,,,,,,
{32}1,2,1,2,3h[8:1]/8,,,,,1,8,7/2h[8:1],,,,
8,7,,,1b/8b,,,2b/7b,,3b/6b,,,
{32}34,,45,,65,,4,3,35,,5,6,64,,4,3,35,,5,6,64,,,
3b,,4b,,5b-1[0.1##0.2],,,,,,8x-6[0.2##0.1]/1x-5[0.2##0.1],,
8x-4[0.##0.1]/1x-3[0.##0.1],,,,
{32}2h[8:1],,,,8h[8:1],,,,1,6,8,7,1,6,8,7,
{32}6h[8:1],,,,4h[8:1],,,,7,4,6,5,7,4,6,5,
{32}8h[8:1],,,,1h[8:1],,,,8,7,6,5,1,2,3,4,
{32}1h[8:1],,,,2h[8:1],,,,12,,12,,38,,74,,
{32}36,,36,,4,5,4,,27,,27,,1,8,1,,38,,38,,2,1,2,1,
{32}3,4,3,4,8,4,3,4,7b,4,3,4,6b,4,3,4,7b,4,3,4,8b,4,3,4,6b,4,3,4,7b,4,3,4,
6b,4,3,4,5b<4[0.2##2],
{4},,,
{16},
{4}1p8[2:1],,
{16},,7,,7,,
{8},,7,7p3[4:1],,,,2q6[4:1],,,,8V26[8:3],
{8},,3,8,,
{24}3,,,,4,,36,,5,4,5,
{24}3,4,,3,,
{24}25,3,4,3,6,,5,,6,,74,,
{24}5,,6,,5,,7b/4b,,5,,4,,5,,3b/6b,,,,,,,,,,,,
{24}2h[2:1]/8,,,,4,,8,,4,,4,,
{24}7h[3:1]/1,,,,5,,1,,5,,1,,5h[2:1]/1h[2:1],,,,,,,,,,,,,,,,,
{32}1,,,,8,,,,2b/7b,,,,1,,8,,2b-4[0##0.1]/7b-5[0##0.1],,,,
3x/6x,,3x/6x,,6b-8[0##0.1]/3b-1[0##0.1],,,,
{64},
{32}18,,,,
{32}3,,3,4,3,,6,5,6,,3,2,4,,6,7,5,,
73,,8,7,8,7,1,6,1,6,2,5,2,5,3b,,,,
{32}1,8,1,8,72,,,,1,2,1,2,38,,,,8,7,8,7,16,
{64},,,,
{8}8-4[0.1##0.2]/1-3[0.1##0.2],8x-6[0.1##0.2]/1x-5[0.1##0.2],
8x-4[0.##0.2]/1x-3[0.##0.2],
{64},
{32}7,,7,,8,7,8,7,8>4[0.1##0.4],,,,4<8[0.1##0.4],,,,8>4[0.1##0.4],,,,
4<8[0.1##0.4],,,,8>4[0.1##0.4],,,,,,,,
{32}3,,3,,3,4,3,4,2,5,2,5,1,6,1,6,8,7,8,7,8,7,8,7,
8,1,2,3,4,5,6,7,8,1,2,3,4/8b,5,6,7,8/4b,1,2,3,4/8b,5,6,7,8/4b,
6,5,6,5,4,7,4,7,3,8,3,8,2,1,2,1,2,1,2,1,8,7,6,5,4,3,2,1,8,7,6,5/1b,4,3,2,1/5b,8,7,6,
5/1b,4,3,2,1/5b,,
{64},8b,,7,,6,,5,,1b,,2,,3,,4,,8b,,7,,6,,5,,1b,2,3,7b,6,5,2b,3,4,7b,6,5,1b,2,3,8b,7,6,
2b,3,4,,
{32},1,,1,,8,1,8,1,8,2,8,2,8,3,8,3,8,4,8,4,8,7,6,5,8,1,2,3,8,7,6,5,4,3,2,1,
4,8,4,8,4,7,4,7,4,6,4,6,4,5,4,5,4,3,2,1,4,5,6,7,4,3,2,1,5,6,7,8,1,2,3,4,
2,6,2,6,
{32}28,28,1,1,1,1,1,1,1,,,,
17,17,8,8,8,8,8,8,8,,,,
{32}4,3,2,1,5,6,7,8,
{64}1,2,3,8,7,6,2,3,4,7,6,5,1,2,3,7,6,5,1,2,3,8,7,6,2,3,4,7,6,5,1,2,3,4,5,6,7,8,1,2,3,4,5,6,7,8,1,2,3,4,5,6,7,
{32},3,4,2,,6,5,7,,3,4,1,,6,5,8,,3,5,1,,6,4,8,,2,5,1,,7,4,8,,
{16}6b,5,7,4,8,3,1,2,
{32}8b,7,6,5,4,3,2,1,8b,7,6,5,4,3,2,1,
{64}8,7,6,5,4,3,2,1,8,7,6,5,4,3,2,1,8,
{32}7,8,7,8,7,8,7,8,7,8,7,8,7,8,
{64}7,8,7,8,7,8,7,8,,,,8hbx[2:1],
{16},,,,,,,1b,2b,3b,,,,
{32}1b,,,,2b,,,,1b,2,3,4,5,6,7,8,1,2,3,4,5,6,7,8,1,2,3,4,5,6,7,
{64}
8,1,2,3,4,5,6,7,8,
5,4,3,2,1,8,7,6,
1,2,3,4,
8,7,6,5,
{64}2,3,4,5,6,7,8,1,2,3,4,5,6,7,8,1,
{32},1,8,1,8,1,8,1,
{64}2,3,4/8,7,6/1,2,3/7,6,5/2,3,4/8,7,6/1-5
E
