&title=Nostalogic
&artist=yuukiss feat. MEIKO
&first=0.27
&des="or Nostalogic?"
&lv_5=13+
&des_5="or Nostalogic?"
&inote_5=
(140){256}3xh[4:15],6xh[256:959],{1},,,{4},,,{16},,,{64},,,{128},{2}5-7v1-3[2:1],
{8}B3,B4,{4}B5,
{2}5-8-5[2:1],{256}D1,A1,{16},{64},,,{128},{256}C,E3,{16},{64},,,{128},{256}D5,A4,{16},,,{64},,,{128},{4}5-8[8:1],
5-8-5[4:1]/1p4[4:1],,,{2}5>5b[2:1],
{8}E2,E3,{4}E4,
1/2-5[8:1],7p4[4:1],{2}5h[4:1],
{4}8/7-4[8:1],2q5[4:1],{2}4h[4:1],
{4}1/2-6[8:1],7pp3[4:1],{2}5h[4:1],
{4}8/7-3[8:1],2qq6[4:1],{2}4h[4:1],
{4}1/8s4[16:3],1>5[8:1],{16},,6,6,5-3[8:1],5,{8}6-8[8:1],
5-1[8:1],6-2[8:1],5,6,3h[8:1],5h[8:1],4h[8:1],6h[8:1],
{4}1z5[16:3],8<4[8:1],{16},,3,3,4-6[8:1],4,{8}3-1[8:1],
4-8[8:1],3-7[8:1],4<7b[8:1],3,{4}4x>1b[8:1]*p8[8:1],4x,
4h[8:1]/6V84[4:1],4<7[8:1],{16},,1,8,1-3[8:1],8,{8}1-6[8:1],
1-4[8:1],1-7[8:1],1,1,{2}5w1b[8:1],
{4}5h[8:1]/3V15[4:1],5>2[8:1],{16},,8,1,8,1,{8}8,
{16}1/A5,2/A6,{8}3/A7,{16}1/A5,2/A6,{8}3/A7,{16}1/A5,2/A6,{8}3/A7,{4}1b/5bh[4:1],
{8}A3/B3h[1:3]/E4h[1:3]/E3h[1:3],8x,8,6,8,5,7,5,
5,{16}5,6,{4}7pp4[8:3],{8},,,,,8,
8,6,8,5,7,5,
5,{16}8,8,{8}2h[16:7],1,{16}A3,A4,A5,A6,3,4,5,6,
{8}A7f/E8h[1:2]/B7h[1:2]/E7h[1:2],1x,1,3,1,4,2,4,
4,{16}4,3,{4}2>5[8:1],{8},,4,{16}2,3h[16:1],
,,{8}1,5,{16}7,6h[16:1],{8}E3/B2/E2,8,4/5pp4[4:1],4,
{4}5/4>5b[2:1],1bh[2:1],{16},,,,,,,,7/2q6[8:1],
,,8,{8}2,1,{2}2p6[8:1]/4>1[8:1],
{16}2/7p3[8:1],,,1,{8}7>2[8:1],8,{2}7/5-1[8:1]*-2[8:1],
{8}7/5-8[8:1],6,5/1-5[8:1],2,3/1<6[8:1],{16}2,2,{8}1,4,
5/1,4/8,3/7,6/2,{4}E1/A1/E2/B1/B5/E6/A5/E5,B3/E3/A3/E4/B7/E8/A7/E7,
{16}3b/6bq2[8:1],,,4,{8}6,5,{2}6p2[8:1]/8<5[8:1],
{8}7/3q7[8:1],6,3/5,4,{2}3p7[8:1]/1>4[8:1],
{16}5/7h[8:1],,,1h[16:3],{4}3h[8:1],{16}4/2h[8:1],,,8h[16:3],{4}6h[8:1],
{2}E1h[4:1]/B8h[4:1]/B1h[4:1]/2qq5[4:1],6-2[8:1]*<7s3>2b[8:1],
{8}8b/1bp5[8:1],2,8q4[8:1],7,5v2[8:1],5,8<5[8:1],8,
{4}8h[8:1],{8}3h[8:1],7h[8:1],{16}E2,E8,E4,E6,E1,E7,E3,E5,
{2}1bw5[8:1],8w4b[8:1],
{4}1-6[8:1]/7-3[8:1],7/1>4[8:1],7/1<6[8:1],3/1w5b[8:1],
1b,{8}2-5[8:1],3,6-1[8:1],7,4-1b[8:1]*-7b[8:1],4,
{4}4-8[8:1],6h[8:1],{16}E8,E2,E6,E4,E1,E3,E7,E5,
{4}8bw4[8:1]*z4b[8:1],D8/D1/A8f,1bw5[8:1]*s5b[8:1],D1/A1f/D2,
4/6pp1[16:5],2q5b[16:5],,C,
{24}7/4xh[8:1],8,1,2,,,{4}6b/8b,{24}2/5xh[8:1],1,8,7,,,{4}3b/1b,
5/3qq8[16:5],7p4b[16:5],,Cfh[4:1],
7b-5p6-4>7[4:3],,,1x,
3-1p2-8<3[4:3],,,5x,
6-8v7-1p6[4:3],,,2x,
2-4v3-5p2[4:3],,,6x,
8qq4<1-5[4:3],,,2x,
4qq8>5-1[4:3],,,6x,
{1}6p3[2:1]*pp2[2:1],
{16}8/A4,7/A3,{8}6/A2,{16}8/A4,7/A3,{8}6/A2,{16}8/A4,7/A3,{8}6/A2,{4}8b/4b,
{1}A2/A6/E3h[1:3]/B2h[1:3]/E2h[1:3]/B6h[1:2]/E7h[1:2]/E6h[1:2],
{2},,,,7h[16:11],
{16}A6,A5,A4,A3,6,5,4,3,
{8}1b-6[8:1],2,8-3[8:1],7,2-6[8:1],2,7pp3[4:1],7,
{4}3>5b[4:1],5h[8:1],B1/A1,{8}4/6h[8:1],{16}2,2,
{8}3h[8:1],1,5/3h[8:1],{16}7,7,{8}6h[8:1],8,1/8qq1[4:1],1,
{4}8/1>8b[2:1],4bh[2:1],,,8-4[8:1],
4/8<5[8:1]*>3[8:1],8,{8}7/1q5[8:1],8,
1/7p3[8:1],8,7/2q6[8:1],1,2/8p4[8:1],1,{4}8/2h[8:1],
{8}2/4-1[8:1],3,4/8-4[8:1],7,6/8>3[8:1],{16}7,7,{8}8,5,
4/8,5/1,{4}2-4b[8:1]/6-4b[8:1],6b-8b[8:1]/2b-8b[8:1],6b/2b,
{16}8/A4/E5,,,7,{8}B2/A2,6,{4}7h[16:3]/B3/A3,{8}6/A1/E1,5,
3/A8/E1,3,2/B6/A6,2,1/B7/A7,{16}3,3h[16:3],{4}A5/E5,
{16}8h[8:1]/7h[8:1],,,8h[8:1]/2h[8:1],,,{8}8h[16:1]/5h[16:1],{16}4h[8:1]/3h[8:1],,,4h[8:1]/6h[8:1],,,{8}4h[16:1]/1h[16:1],
{2}B8h[4:1]/B1h[4:1]/E1h[4:1]/7pp4[4:1],3-7[8:1]*>2z6<7b[8:1],
{8}1b/8bq4[8:1],7,1p5[8:1],2,4v7[8:1],4,1>4[8:1],1,
{4}1h[8:1],{8}2h[8:1],6h[8:1],{16}B2,B8,B4,B6,A2,A8,A4,A6,
{2}1b-3<4b[8:1]*-7<6[8:1],8-6>5b[8:1]*-2>3[8:1],
{4}8-3[8:1]/2-6[8:1],2/8<5[8:1],2/8>3[8:1],6/8w4b[8:1],
8b,{8}7-4[8:1],6,3-8[8:1],2,5-8b[8:1]*-2b[8:1],5,
{4}5-1[8:1],3h[8:1],{16}B7,B1,B5,B3,A7,A1,A5,A3,
{4}7bp3[8:1]/1xq5b[8:1],E3f/E6,2bq6[8:1]/8xp4b[8:1],E7f/E4,
5/3qq8[16:5],7p4b[16:5],,C,
{32}6xh[8:1]/A3,B3,C,B7,{8}A7,{4}2b/3b,{32}3xh[8:1]/A6,B6,C,B2,{8}A2,{4}7b/6b,
4/6pp1[16:5],2q5b[16:5],,Cfh[4:1],
{8}2b,{16}5/3,3/5,,6,,4h[16:7],{8}E6,E8,E2,E4,
7/C,{16}4/6,6/4,,5h[16:9]/3h[16:1],,,{8}E4,E2,E8,E6,
2/C,{16}5/3,3/5,,6,,4h,{8}4h[8:3]/E6,E8,E2,E4,
7/C,{16}4/6,6/4,,5h[16:5]/3h[16:1],{32},,,,D3,D4,D5,D6,D7,D8,D1,D2,{4}5b/D3f/E3/A3/A2,
{8}1/C,{16}3/4,5/4,,6h[16:9]/7h[16:1],,,{8}E7,E1,E3,E5,
8/C,{16}6/5,4/5,,2h[32:3]/3h[16:5],{32},,,,2,1,8,7,6,5,4,3,{4}2/6b,
{8}1/C,{16}3/4,5/4,,6h[16:9]/7h[16:1],,,{8}E7,E1,E3,E5,
8/C,{16}6/5,4/5,,3h[8:1]/2h[8:1],,,{2}2q7[8:1]/3v6[8:1],
{8}1b/5b,{16}2,4,{8}3,3,8/4,B3/A3/B7/A7,{4}B2/A2/B6/A6,
{8}5/3,{16}4,6,5,6,{8}4,{16}5,3,,3,{8}B7/A7/E8,B8/A8/E1,
4/6,{16}6,4,,4,,3,{8}5,5,{4}E3/D3/E7/D7,
{8}8/2,7/1,5/4,{16}3/6,3/6,,E7/E3,,7/2,{8}7/2,E7/E3,
8b/4b,{16}7,5,{8}6,6,1/5,B6/A6/B2/A2,{4}B7/A7/B3/A3,
{8}4/6,{16}5,3,4,3,{8}5,B2/E2/D2,B2/E2/D2,B7/E8/D8,B7/E8/D8,
5/3,{16}3,5,,5,,6,{8}4,A7/B7/E8,B8/A8/E1,B1/A1/E2,
{32}3,4,{16}3,5,4,{8}6h[8:1],{16}5,5,4,4,3,3,{8}B2/E2/A2,B1/E1/A1,
{256}3xh[4:15],6xh[256:959],{1},,,{4},,,{16},,,{64},,,{128},{8}8b/1b,
2,2/4V28[8:1],{16}4,5,4xV68[8:1],6,,,,,{8}2,
8/1,3/6,2/7,{16}4/5,4,{8}5h[4:1],A7/E8/B7,B2/E2/A2,5/4,
1<6[8:1],2,1/3,4,8>3[8:1],7,8/6,5,
5,4/8,3/7V15-2-6[2:1],{16}6/2,1xh[16:5],,,,,,,,,{4}4xw8b[16:1],
{64}B4,Cf,B8,A8,,,,,,,,,,,,,{8}1-5[8:1],7-3[8:1],{16},,,,2pp8[4:1],
,,5,{8}2,6,{16}7qq1[4:1],,,4,{8}7,3,
{4}2bz6b[8:1]*-5[8:1],E3/B1f,7bs3b[8:1]*-4[8:1],E7/B8f,
{2}E5h[4:1]/B5h[4:1]/B4h[4:1]/3pp8[4:1],6z2b[8:1]*<7-3>2[8:1],
{8}6b/3b-7[8:1],3,6-2[8:1],6,4-8[8:1],4,7<4[8:1],7,
{4}7h[8:1],{8}2h[8:1],8h[8:1],{16}E2,E8,E4,E6,D2,D8,D4,D6,
{2}1bp4[8:1]*q6[8:1],8p3b[8:1]*q5b[8:1],
{4}2-5[8:1]/7-4[8:1],2/7>2[8:1],7/3<6-2[4:1],3/7-3b[8:1],
7b,{8}4-8[8:1],4,5-1[8:1],5,1<3[4:1],2,
{4}3h[8:1],{8}1h[8:1],5h[8:1],{16}E2,E8,E4,E6,D2,D8,D4,D6,
{4}1bw5[8:1]*v4<5b[8:1],B1f/E1/E2,8bw4[8:1]*v5>4b[8:1],B8f/E1/E8,
7/5qq2[16:5],1p6b[16:5],,C,
{1}2bh[4:15]/7bh[4:15],
{4},,,,,,,,,,,,2/E7/B6/D7,
3/E7/B6/D7,2/E7/B6/D7,3/E7/B6/D7,
7/B3/E3/D3,6/B3/E3/D3,7/B3/E3/D3,6/B3/E3/D3,
7h[4:1]/1-5b[8:1],Cf,2h[4:1]/8-4b[8:1],Cf,
7/5qq2[16:5],1p6b[16:5],,C,
{8}2-6b[16:1],3/1,{4}A6f/E7/E6,{8}7-3b[16:1],6/8,{4}A3f/E3/E4,
2/4pp7[16:5],8q3b[16:5],,Cfh[4:1],
{32}B2f/B3,B6f/B7,E3f/E7,D7f/A3/A2/A7/A6/D3,{4},,{16},,{4}1x-5[8:1],
1>7[2:1],,,8x-4[8:1],
8<2[2:1],,,1x,
{8}1h[2:1],5,6,7,8h[2:1],2,3>8b[8:1],4,
{24}D3f,D2,D1,D8h[8:5],,,{4}5,4,6<1b[8:1],
{24}D7f,D8,D1,D2h[8:5],,,{4}4,5,3h[4:1],
{32}A8,D8,A7,D7,{8}A6,4h[8:1],{32}A1,D1,A8,D8,{8}A7,5h[8:1],{32}A2,D2,A1,D1,{8}A8,
6h[8:1],{32}A3,D3,A2,D2,{8}A1,7h[8:1],{32}A4,D4,A3,D3,A2,D2,A1,D1,A8,D8,A7,D7,A6,D6,A5,D5,
{4}4xv1b[8:1]*>1[8:1],{32}E4f,B3,B2,E2,,,,,{4}5xv8b[8:1]*<8[8:1],{32}E6f,B6,B7,E8,{96},,,,,,,,,,,,{6}1xh[12:1]/5xh[12:1],
2xh[12:1]/6xh[12:1],3xh[12:1]/7xh[12:1],2xh[12:1]/6xh[12:1],1xh[12:1]/5xh[12:1],8xh[12:1]/4xh[12:1],
{1}5-8V63-5b[8:5]/1-4-2-7-1[8:5],
Cf/B2/E3/D3/B6/E7/D7,
E
