&title=Daydream café
&artist=Petit Rabbit's「ご注文はうさぎですか?」
&first=0
&des=001
&lv_5=13
&inote_1=(150){1},
{8},,,,,5,5pp6[8:1]*qq4[8:1],,
{8}5w1[8:1],,,,8/2,8/2h[4:1],,3-7[8:1],
{8},1,1-5[8:1],1,6>3[8:1],6,2,2,
{8}8-4[8:1],,1-5[8:1],,2,,,8p3[8:1],
{8},1p8[4:1],1,,,,4b,,
{8}6>3[8:1]/2,5,6/4,,8,2h[4:1],,3h[4:1],
{8},4,{32}1v8[8:1],,,,{8}5v4[8:1],,,7,6,
{8}5/1,7,8/6,1,7/3,5,1,2/4h[4:1],
{8},7,7,,,{24}6,5,4,{8}3,,
{8}3/4,7,2/5,8,6/5,2,4/7,1,
{8}8/3,6,8,2<7[8:1],,,,5h[4:1],
{8},6,2,2h[8:1],8,5,3,1-5[8:1],
{8}7-3[8:1],,,8-4[8:1],,,,6h[4:1],
{8},7,3h[8:1],2,8/5,2,6/3,8,
{8}6/7,8,4,3<6[8:1]/6,,8,,1h[4:1],
{8},2,3/4,1,3/5,6,4/8,2,
{8}6b/8b,,4/5,1b/3b,,6,5,3,
{8}6/5,8,4/5,2,5,6h[4:1],,7h[4:1],
{8},8,2,3,6/5,2,7/4,5,
{16}2>5[8:1],,,4,{16},,7,,{8}1,,5,6h[4:1],
{8},7,,5/6,3/8,5,4,2,
{8}7/8,2,5/6,2,7/4,8/5,,5h[4:1],
{8},2,3,6,3/4,7,5/4,2,
{8}4qq4[4:1],,4<7[8:1]*p7[8:1],,,,1,1<5[8:1]*>5[8:1],
{16},,,,,,2/8,,2/8,,4,5,3,4,2,,
{8}3/6,4,2/5,7,1/4,2,8/3,1,
{8}2/7,5,6/1,8,2/7,4,3/6,,
{8}2v4[8:1]*<7[8:1],2,,,2/6<2[8:1],2v4[8:1]/6,,3,
{8},2-7[8:1]/6-3[8:1],2/6,,,4b,5b,7,
{8}6/5,3,1/4,6,4/3<6[8:1],,7,8,
{8}1,2,8/5,6,4/5-2[8:1],3,1,8,
{16}1/7,,5,4,5,4,5,,3-7[8:1],,1,,6,,4,,
{8},{16}2,3,{8}2,5,8,3,1/2,3h[4:1],
{8},2,4,3/5>2[8:1],,4,,8h[4:1]/5,
{8},7,6,5/4>1[8:1],,3-7[8:1],,8-3[8:1],
{8},2,4,6>3[8:1],,8,,2/7,
{8},1/8,4/5,2b/7b,,5/4,5/4qq3[8:1]*pp5[8:1],6/3,
{8}4w8[8:1],,,,7/1,3/5,,8/4-7[8:1],
{8},6,8,2-5[8:1],4,1,7,3,
{8}6/5>2[8:1],,3-7[8:1],,8,,5/6,5h[4:1]/6,
{8},2-5[8:1],4,7,1,6b,8b,2b,
{8}4/3p6[8:1],,2,,4>1[8:1]/5,4/5,{32},,,,7h[8:2],,,,
{8},6,1/8,3/2,,,3/4,2,
{8}8-3[8:1]/6,5,4,7,8/5v2[8:1],3,7,4-7[8:1],
{8},1b,1b,1b,,4/5,5pp6[8:1]*qq4[8:1]/4,3/6,
{8}5w1[8:1],,,,2/8,6/4,,1/5-2[8:1],
{8},3,1,7-4[8:1],5,8,2,6,
{8}3/4<7[8:1],,6-2[8:1],,1,,4/3,4h[4:1]/3,
{8},7-4[8:1],5,2,8,3b,1b,7b,
{8}5/6q3[8:1],,7,,5<8[8:1]/4,5/4,{32},,,,2h[8:2],,,,
{32},,,,1,2,3,4,{32}5v8[8:1],,,,{8}1v4[8:1],,,6,5,
{8}8/7-4[8:1],2,7/5,2,8-3[8:1],2,8/5,7,
{8},{16}4,5,{8}4-7[8:1],2,6,8,1,4b/5b,
{8},1b/8b,7b/2b,,1pp3[8:1]/8qq6[8:1],,,,
{8}5/2h[8:2],,{32}8,1,2,3,{8}4h[8:2],,{32}1,2,3,4,{8}5h[8:2],,
{8}7,1/8,4/5,2b/7b,,,,,
{1},
{1},
{1},
E
&inote_5=(150){1},
{8},,,,,5,5pp6[8:1]*qq4[8:1],,
{8}5w1[8:1],,,,8/2,8/2h[4:1],,3-7[8:1],
{8},1,1-5[8:1],1,6>3[8:1],6,2,2,
{8}8-4[8:1],,1-5[8:1],,2,,,8p3[8:1],
{8},1p8[4:1],1,,,,4b,,
{8}6/2>5[8:1],4,2,,8,1/2h[4:1],,8h[4:1],
{8},7h[8:2],{32},,,,{8}2b,,,3,4,
{8}5/1,6,3/4,2,6/4,5,1,2/4h[4:1],
{8},7,7,,,{24}6,5,4,{8}3,,
{8}6/5,3,7/4,1,3/7,1,2/5,7,
{8}8/3,6,1,3<6[8:1],,,,8h[4:1],
{8},7,1,2,3/4,6,5/2,1-5[8:1],
{8}7-3[8:1],,,8-4[8:1],,,,6h[4:1],
{8},7,3h[8:1],2,8/5,2,6/3,8,
{8}6/7,8,4,3<6[8:1]/6,,8,,1h[4:1],
{8},2,3/4,1,3/5,7,4/8,2,
{8}6b/8b,,4/5,1b/3b,,6,5,3,
{8}6/5,8,4/5,2,5,6h[4:1],,7h[4:1],
{8},8,2,3,6/5,2,7/4,5,
{16}2>5[8:1],,,4,{16},,7,,{8}1,,5,6h[4:1],
{8},7,,5/6,3/8,5,4,2,
{8}7/8,2,5/6,2,7/4,8/5,,5h[4:1],
{8},2,3,6,3/4,7,5/4,2,
{8}4qq4[4:1],,4<7[8:1]*p7[8:1],,,,1,1<5[8:1]*>5[8:1],
{16},,,,,,2/8,,2/8,,4,5,3,4,2,,
{8}3/6,4,2/5,7,1/4,2,8/3,1,
{8}2/7,5,6/1,8,2/7,4,3/6,,
{8}2v4[8:1]*<7[8:1],2,,,2/6<2[8:1],2v4[8:1]/6,,3,
{8},2-7[8:1]/6-3[8:1],2/6,,,4b,5b,7,
{8}6/5,3,1/4,6,4/3<6[8:1],,7,8,
{8}1,2,8/5,6,2p6b[8:1]/5,2,2b,,
{16}5,,5,4,5,4,5,,3-7[8:1],,1,,6,,4,,
{8},{16}2,3,{8}2,5,8,3,1/2,3h[4:1],
{8},2,4,3/5>2[8:1],,4,,8h[4:1]/5,
{8},7,6,5/4>1[8:1],,3-7[8:1],,8-3[8:1],
{8},2,4,6>3[8:1],,8,,2/7,
{8},1/8,4/5,2b/7b,,5/4,5/4qq3[8:1]*pp5[8:1],3,
{8}4w8[8:1],,,,7/1,3/5,,8/4-7[8:1],
{8},6,8,2-5[8:1],4,1,7,3,
{8}6/5>2[8:1],,3-7[8:1],,8,,5/6,5h[4:1]/6,
{8},2-5[8:1],4,7,1,6b,8b,2b,
{8}4/3p6[8:1],,2,,4>1[8:1]/5,4/5,{32},,,,7h[8:2],,,,
{8},6,1/8,3/2,,,3/4,2,
{8}8-3[8:1]/7,5,4,7,8/5v2[8:1],2,7,4-7[8:1],
{8},1b,1b,1b,,4/5,5pp6[8:1]*qq4[8:1]/4,6,
{8}5w1[8:1],,,,2/8,6/4,,1/5-2[8:1],
{8},3,1,7-4[8:1],5,8,2,6,
{8}3/4<7[8:1],,6-2[8:1],,1,,4/3,4h[4:1]/3,
{8},7-4[8:1],5,2,8,3b,1b,7b,
{8}5/6q3[8:1],,7,,5<8[8:1]/4,5/4,{32},,,,2h[8:2],,,,
{32},,,,1,2,3,4,{32}5v8[8:1],,,,{8}1v4[8:1],,,6,5,
{8}8/7-4[8:1],2,7/5,2,8-3[8:1],2,8/5,7,
{8},{16}4,5,{8}4h[8:1],2,6,8,1,4b/5b,
{8},1b/8b,7b/2b,,1pp3[8:1]/8qq6[8:1],,,,
{8}5/2h[8:2],,{32}8,1,2,3,{8}4h[8:2],,{32}1,2,3,4,{8}5h[8:2],,
{8}7,1/8,4/5,2b/7b,,,,,
{1},
{1},
{1},
E
