&title=MARENOL
&artist=LeaF
&first=0.315
&des=LllHhuauaG
&des_5=磷化锆
&lv_5=14
&lv_7=14+?
&inote_5=(140){4},,,,{32}7x,
6x,7x,6x,7x,6x,7x,6x,7x,6x,7x,6x,7x,6x,7x,6x,7x,6x,7x,6x,7x,6x,7x,6x,7x-3b[8:1],6x,7x,6x,7x,6x,7x,6x,
{2}7bx,{16}8,4,,4,{8}6,6/3,
{4}4/5,5/4,4/5h[8:1],5/4h[8:1],
5/3,5/4,6/4h[8:1],4/5h[8:1],
4/6,5/3,6h[8:1]/4h[8:1],5h[8:1]/3h[8:1],
{8}6/4<7[8:1],5,4/2,2,6h[16:1]/4v7[8:1],3,4/2,3,
6/4-7[8:1],5,4/2,3,6h[16:1]/4-6[8:1],2,2/4,{16}2,3,
{8}5/4p7[8:1],4,4/2,3,6h[16:1]/4<6[8:1],5,4/3,{16}3,2,
{32}1x,8x,7x,6x,5x,4x,3x,2x,1x-5[1.2857##0.2143],8xz4b[1.2321##1.0714],7x,6x,5x,4x,3x,2x,{2}1xh[8:3]/8h[2:1],
{4}1b,{32},,,,,,,,,,,,,,,,B5,C,{16}B1,,,7>2[16:3],
,,2<7[8:1],{4}7/3h[8:1],{8}5-2[8:1],5-8[8:1],,,2bx<7[8:1],
7bx>2[8:1],2,5-7b[8:1],5-3[8:1],5-1[8:1],,,{4}2bx-8-4[4:1],
2h[8:1],{8}1bxv4[8:1],5-7[8:1],1b>5b[16:3],5b,
{4}1bx>6[4:1],1bx>7b[4:1],1bx,Ch[8:1],
{8}2<7b[12:1],8>2[8:1],{4}6h[8:1],{8}7>2[8:1],2<8b[8:1],{4}3h[8:1],
{8}3x-8[8:1],7x-5b[8:1],3,7,3h[16:1],8h[16:1],{32}2pp5b[4:1],1,2,1,,,,,{4}2bx,
{8}8>3[8:1],3>8b[8:1],{4}8V24V28[64:17],4q4b[4:1],
4bxqq4<4[2:1],,,Ch[8:1],
,,,,{1}7bh[1:5],
,,2<2b[8:13],
,{32}1h,
8,7,6,5,4,3,2,{24}8h,7,6,{96}5,,,3h,,,{32}2,1,{24}7h,6,5,3-6b[16:13],{48},{16}2,{32}1/7-2[12:1],6,5,4,3,2,1,8,
{1}7bx,
{2}5bh[4:15],{64}B1,A1,{4},{16},,,{32},{64}E2,
D2,{4},{16},,,{32},{64}B2,A2,{4},{16},,,{32},{64}E3,
D3,{4},{16},,,{32},{64}B3,A3,{4},{16},,,{32},{64}E4,
D4,{4},{16},,,{32},{64}B4,A4,{4},{16},{32},{8}Ch[8:1],
{2}8bh[2:1],{12}3,3,3,2v5[8:1]/8v5b[8:1],8/2,8/2,
{4}2b`8b,{12}4/7>1<6[12:7],7/4,7/4,{2}7x/4,
3bh[2:1],{64}4xqq1[16:5],D4,D3,A2,D2,A1,D1,A8,D8,A7,{32}D7,,,{4}5xh[8:1],
{48}5bx,6x,7x,8x,,,,,,,,,{12}8v3-1[4:1]`1xv6-8b[4:1],8/1,8/1,{2}8xz4[6:1]/1xs5[6:1],
6x/3bxh[2:1],{12}6x,5,4,5/3<6[6:1],4,3,
{4}2b,{12}7<5b[6:1]/3>1b[6:1],8/4,1/5,{2}7x>1[6:1]`3x<5[6:1],
5bxh[8:15],4>6[32:35]*>6[12:13],
{4},,,{16},,{64},D7/D5,A7/A4,D8/D4,{16}A8/A3,
{4}2x/1xh[4:1],2xqq7>2[16:7],{2}2x>7b[16:3],
{4}3x/8x,3xq3-5[8:5]/7xq7[16:7],,,8xh[4:1],
{32}D7,E7,B7/B6,B8/B5,B1/B4/B2/B3,E3,{16}D3,{2}2xh[4:1]/Ch[2:1],
{4}3xh[4:1],4q6q2b[32:13],{2}5h[2:1],
{1}3bxV15[8:5],
{4}4bx/6h[4:1],{12}3,7/4,8/5,{32}1,2,3,4,5,6,7,8,2v5[8:1],3,4,5,6,7,8,1,
{4}2bx,{32}3-1[8:1],6,3,6,{16}3-5[8:1],5,{8}3x-7[8:1],3x,{4}3x,
{6}8bx/6h[6:1],{12}4,3/7,2/6,5/1,{32}4bx/8,3,2,1,8,7,6,5,1bx,2,3,4,5,6,7,8,
{4}1bx/5h[4:1],{32}1x,8x,7x,6x,{24}5x,4x,3x,8x/2x,7x,6x,4x,3x,2x,{12}1bx/5,2bx/6,3bx/7,
{6}4bx/8h[6:1],{12}1,{24}2x-4<5b[8:1],3x,4x,2x<1-7b[8:1],1x,8x,{2}2xs6b[4:1],
{6}7xh[8:1],{12}8x,{24}7x-5>4b[8:1],8x,1x,2x,3x,4x,{8}7xs3b[2:1],{24}3xh,2x,1x,{12}8x,8x,8x,
{4}1bh[2:1],{8},,,,1>8[8:55],Ch[8:1],
{2}D2,A2/C,
D3/C,A3/C,
D4/C,A4/C,
D5/C,A5/C,
D6/C,A6/C,
D7/C,A7/C,
{1}D1/E1/C,
{32}4b,5,4,5,4,5,4,5,4b,5,4,5,4,5,4,5,4b,5,4,5,4b,5,4,5,4b,5,4,5,4b,5,4,5,
{4}4bh[4:3],{8}7,{16}7,6,{8}5,6,{4}7,
8h[8:5],{8}1,{16}1,2,{8}3,2,{4}1-5[8:1],
1/2-6[8:1],2/3-7[8:1],3/4-8[8:1],4/5-1[8:1],
{8}6-2[8:1],6,7-3[8:1],7,8-4[8:1],8,1-5[8:1],1,
{4}1/2h[1:1],{8}3,{16}3,4,{8}5,4,{4}3,
5h[4:3],{8}7,{16}7,8,{8}1,8,{4}6-2[8:1],
6/7-3[8:1],7/8-5[8:1],8/1-4[8:1],1/2-6[8:1],
{8}3-8[8:1],3,4-1[8:1],4,5-8[8:1],6,6-2[8:1],7,
{24}6/3,,,,,5h[48:1],{32}1h[32:5],,,,,6h[64:1],{96},,,,,,{48}2h[8:1],,,,,7h[48:1],,,,,,,{16}3h[4:1],8h[48:1],,,,,,,{4}4h[8:1]`8h[8:1],
{48}6h[8:1],3h[48:5],,,,,,,,,,,{4}2h[8:1]`7h[2:1],
{16},,,4h[48:1],{48},,,,,,,,{12}6h[48:1],{8}1h[8:1],5h[8:1],{16}2h[16:1],7h[16:3],,,{4}3h[8:1],
4h[8:1]`3h[48:1],{64}4h[48:1],5h[8:1],,,,,,,,,,,,,,,{4}6h[8:1]`5h[8:1],
{24}2h[12:5],,,,,1h[48:1],,,,,{12}5h[48:1],{32}4h[8:1],,,1h[32:5],,,,,{16}6h[4:1],8h[48:1],,,,,,,{4}6h[48:1]`4h[8:1],
{8}5h[48:1]`6h[8:1],4,{4}2h[2:1]`3h[4:1],
{24},,,,,5h[48:1],,,,7h[16:1],3h[48:1],,{8}5h[8:1],4h[8:1],{16}1h[8:1],3h[16:3],,,{4}6h[8:1],
2h[8:1]`3h[8:1],3h[8:1]`5h[48:1],7`4v5[8:29],
{1}4/E1/Ch[4:15],
E2,
E3,
{4}E4,,,8V27b[1:4],
{64}C,E5,{4},,,{16},,,{32},{64}C,
E6,{4},,,{16},,,{32},{64}C,
E7,{4},,,{16},,,{32},{64}C,
E8,{4},,,{16},,,{32},{1}E1/C/D1f,
E
&inote_7=(140){4},,,,{48}7x,
6x,7x,6x,7x,6x,7x,6x,7x,6x,7x,6x,7x,6x,7x,6x,7x,6x,7x,6x,7x,6x,7x,6x,7x,6x,7x,6x,7x,6x,7x,6x,7x,6x,7x,6x,7x-3b[8:1],6x,7x,6x,7x,6x,7x,6x,7x,6x,7x,6x,
{2}7bx,{16}8,4,,4,{8}6,6/3,
{4}5`4-2[8:1],5/4,4/5h[8:1],5/4h[8:1],
3`5-7[8:1],5/4,{8}6/4h[8:1],5,4/5h[8:1],3,
{4}6/4-1[8:1],5/4,6h[8:1]/4h[8:1],5h[8:1]/3h[8:1],
{8}6/4<7[8:1],5,4/2,{16}2,3,7/4v7[8:1],6,{8}4/5,4/3,3,
6/4-7[8:1],5,4/2,{16}2,3,6/4-6[8:1],5,{8}3/4,2/4,{16}2,3,
{8}5/4p7[8:1],4,4/2,{16}2,3,7/4<6[8:1],6,{8}5,4/3,{16}3,2,
{32}1,8,7,6,5,4,3,2,1-5[1.2814##0.2143],8z4b[1.23##1.0671],7,6,5,4,3,2,{2}1xh[8:3]/8h[2:1],
{4}1b,{32},,,,,,,,,,,,,,,,B5,C,{16}B1,,,7>2[16:3],
,,2<7[8:1],{8}7/3,4,5-2[8:1],5b-8[8:1],5b,5b,
{16}2bx<7[8:1],3h,7bx>2[8:1]`4h,6,{8}2`5,5-7b[8:1],5-3[8:1],5-1[8:1],5x,5x,
{16}2bx-8-4[4:1],,,2x,{4}2h[8:1],{48}1bxv4[8:1],2x,{24}3x,{48},,{16}5-7[8:1],5,{8}1b>5b[16:3],5b,
{4}1bx>6[4:1],1bx>7b[4:1],1bx,Ch[8:1],
{8}2<7b[12:1],8>2[8:1],{4}2/6h[8:1],{8}7>2[8:1],{16}2<8b[8:1],3,{4}7/4h[8:1],
{16}3x-8[8:1],3x,7x-5b[8:1],7x,{8}3,7,{16}3x,3,8x,8,{32}2pp5b[4:1],1,2,1,{8}2,
{4}2bx,{48}1x>4[8:1],8x,7x,6x,{96},{32}5x,{16}4x>1b[8:1],4x,{4}1xV35V31[64:17],5xq5b[4:1],
5bxqq5<5[2:1],Cf/B1/B8/E2/E1,Cf/B2/E3/B3/B4,Ch[8:1],
,,,,{1}7bh[1:5]/6-8-5-1-4-2>3[2:5],
,,2<2b[8:13],
,{32}1h,
8,7,6,5,4,3,2,{24}8h,7,6,{96}5,,,3h,,,{32}2,1,{24}7h,6,5,3-6b[16:13],{48},{16}2,{32}1/7-2[12:1],6,5,4,3,2,1,8,
{1}7bx,
{2}5bh[4:15],{64}B1,A1,{4},{16},,,{32},{64}E2,
D2,{4},{16},,,{32},{64}B2,A2,{4},{16},,,{32},{64}E3,
D3,{4},{16},,,{32},{64}B3,A3,{4},{16},,,{32},{64}E4,
D4,{4},{16},,,{32},{64}B4,A4,{4},{16},{32},{8}Ch[8:1],
{2}8bh[12:5],{12}3/7,3/7,3/7,2v5[8:1]/8v5b[8:1],8/2,8/2,
{4}2b`8b,{12}7>1<6[12:7]/4pp4[4:1],7/4,7/4,{2}7x/4-2[6:1],
3bh[2:1],{64}4xqq1[16:5],D4,D3,A2,D2,A1,D1,A8,D8,A7,{32}D7,,,{8}5,5,
{48}5b,6,7,8,,,,,,,,,{12}8v3-1[4:1]`1xv6-8b[4:1],8/1,8/1,{2}8bz4[6:1]/1bs5[6:1],
3bxh[12:5]/6x-8[12:1],{12}6x/3,5,4,5/3<6[6:1],4,3,
{4}2b/3,{12}7<5b[6:1]/3>1b[6:1],8/4,1/5,{2}7b>1[6:1]`3b<5[6:1],
5bxh[8:15],4>6[32:35]*>6[12:13],
{4},,,{16},,{64},D7/D5,A7/A4,D8/D4,{16}A8/A3,
{4}1x`2x,2xqq7>2[16:7]`5x>2[4:1],{2}2x>7b[16:3],
{4}3x/8x,3xq3>1[8:5]/7xq7[16:7],,,8xh[4:1],
{32}D7,E7,B7/B6,B8/B5,B1/B4/B2/B3,E3,{16}D3,{2}2xh[4:1]/Ch[2:1],
{4}3xh[4:1],4q6q2>4b[32:13],{2}5h[2:1],
{1}3bxV15[8:5],
{4}4bx/6h[4:1],{12}3,7/4,8/5,{32}1,2,3,4,5,6,7,8,2q4[16:3],3,4,5,6,7,8,1,
{4}2bx/6,{32}3-1[8:1],5,3,5,{16}3-5[8:1],4,{8}3-7[8:1],3,{4}3,
{6}8bx/6h[6:1],{12}4,3/7,2/6,5/1,{32}4bx/8,3,2,1,8,7,6,5,1bpp2[6:1],2,3,4,5,6,7,8,
{4}1bx/5h[4:1],{32}1,8,7,6,{24}5,4,3,8/2,7,6,4x,3,2,{12}1b/5,2b/6,3b/7,
{6}4b/8h[6:1],{12}1,{24}2-4<5b[8:1],3,1,2<1-7b[8:1],3,4,{8}2s6b[4:1],2,{4}2,
{6}7h[8:1],{12}8,{24}8/7-5>4b[8:1],1,2,4,5,6,{8}7s3b[2:1],{24}3h,2,1,{12}8/7,8,8,
{4}8bh[2:1],{8},,,,1>8[1:7]*>2b[1:1]*>4b[1:3]*>5[1:4]*>6b[1:5]*>8b[1:7],Ch[8:1],
{2}A1,C/D2,
C/A2,C/D3,
C/A3,C/D4,
C/A4,C/D5,
C/A5,C/D6,
C/A6,C/D7,
{1}D1/E1/C,
{32}D1f,E1,C,E5,{48}D5,5bx,4bx,5bx,4bx,5bx,4bx,5bx,4bx,5bx,4bx,5bx,4bx,5bx,4bx,5bx,4bx,5bx,4bx,5bx,4bx,5bx,4bx,5bx,4bx,5bx,4bx,5bx,4bx,5bx,4bx,5bx,4bx,5bx,4bx,5bx,4bx,5bx,4bx,5bx,4bx,5bx,
{4}4h[4:3],{8}7,{16}7,6,{8}5,6,{4}7,
8h[8:5],{8}1,{16}1,2,{8}3,2,{4}1-5[8:1],
{8}1/2-6[8:1],2,2/3-7[8:1],3,3/4-8[8:1],4,4/5-1b[8:1],5,
5/6-2[8:1],6,6/7-3b[8:1],7,7/8-4[8:1],8,8/1-5b[8:1],1,
{4}1/2h[1:1],{8}3,{16}3,4,{8}5,4,{4}3,
5h[4:3],{8}7,{16}7,8,{8}1,8,6-2[8:1],6,
6/7-3[8:1],7,7/8-5[8:1],8,8/1-4[8:1],1,1/2-6[8:1],2,
2/3-8b[8:1],3,3/4-1[8:1],4,4/5-8b[8:1],6,5/6-2[8:1],7,
{24}6/3,,,,,5bh[48:1],{32}1h[32:5],,,,,6bh[64:1],{96},,,,,,{48}2h[8:1],,,,,7bh[48:1],,,,,,,{16}3h[4:1],8bh[48:1],,,,,,,{4}4h[8:1]/8bh[8:1],
{48}6h[8:1],3bh[48:5],,,,,,,,,,,{4}2bh[8:1]`7h[2:1],
{16},,,4bh[48:1],{48},,,,,,,,{12}6bh[48:1],{8}1h[8:1],5bh[8:1],{16}2h[16:1],7bh[16:3],,,{4}3h[8:1],
4h[8:1]/3bh[48:1],{64}4bh[48:1],5h[8:1],,,,,,,,,,,,,,,{4}6h[8:1]/5bh[8:1],
{24}2h[12:5],,,,,1bh[48:1],,,,,{12}5bh[48:1],{32}4h[8:1],,,1bh[32:5],,,,,{16}6h[4:1],8bh[48:1],,,,,,,{4}6bh[48:1]`4h[8:1],
{8}5bh[48:1]`6h[8:1],4,{4}2h[2:1]`3bh[4:1],
{24},,,,,5bh[48:1],,,,7h[16:1],3bh[48:1],,{8}5h[8:1],4bh[8:1],{16}1h[8:1],3bh[16:3],,,{4}6h[8:1],
2h[8:1]/3bh[8:1],3h[8:1]`5bh[48:1],7`4bv5[8:29],
{1}4/E1/Ch[4:15],
E2,
E3,
{4}E4,,,8V27b[1:4],
{64}C,E5,{4},,,{16},,,{32},{64}C,
E6,{4},,,{16},,,{32},{64}C,
E7,{4},,,{16},,,{32},{64}C,
E8,{4},,,{16},,,{32},{1}E1/C/D1f,
E
