&title=βlαnoir
&artist=Aoi
&first=-1.1
&des=TRG
&wholebpm=202
&lv_5=14+
&inote_5=(202){1},
{4},,5h[4:1],1-4[8:1]*-6[8:1],
{1}1bs5-8[4:11]*z5-2[4:11],,,
{4},,E6/E4,,
{8}6h[8:6],,5,E4,,,4,,
{8}3h[8:6],4,5,E7,,,{16}6,5,4,,
{8}4h[8:3],,,5h[8:3],,,6>2[8:4],,
{4},,4h[4:1],8-5[8:1]*-3[8:1],
8bq1[4:6],,4h[8:1],4h[8:1],
3h[8:1],3h[8:1],3h[8:1],3h[8:1],
2q3[4:6]/8h[8:1],8h[8:1],8h[8:1],8h[8:1],
7h[8:1],7h[8:1],7h[8:1],7h[8:1],
6v7-5[4:2]/4h[8:1],4h[8:1],4h[8:1],4h[8:1],
3v4-2[4:2]/5h[8:1],5h[8:1],5h[8:1],5h[8:1],
{8}1,1,28,28,37,37,46,46,
{16}3,5,3,5,2,6,1,7,8w4b[8:1],,,,,,,,
{16}25,,3p7[8:1],4,3,,3/6p2[8:1],,,,6/1p5[16:2],,,,1/5>7[8:3],,
6xh[8:6],,,,,,,,,,,,8,1,2,3,
{16}74,,6q2[8:1],5,6,,6/3q7[8:1],,,,3/8q4[16:2],,,,8/4<2[8:3],,
3xh[8:6],,,,,,,,,,,,1,8,7,6,
{16}3,4,3,4,3,4,{48}E3,D3,A3,D4,A4,,
{16}6,5,6,5,6,5,{48}E7,D7,A6,D6,A5,,
{16}3x,4x,{48}D3,E3,B3,B4,,,{16}6x,5x,{48}D7,E7,B6,B5,,,
{16}1,8,1,8,{48}A2,B2,E3,E4,,,A7,B7,E7,E6,,,
{16}3,4,3,4,2,5,2,5,1,6,1,6,8,7,8,7,
A2/E3/A3,,E6,E4,E5/D5,,A6/E7/A7,,E2,E8,E1/D1,,3b/6b,,,,
7h[8:1],,B4,E5,7h[8:1],,B4,E5,7h[8:1],,B4,E5,7h[8:1],,B4,E5,
8h[8:1],,B5,E5,8h[8:1],,B5,E5,8h[8:1],,B5,E5,8h[8:1],,B5,E5,
7h[8:1],,B3,B4,7h[8:1],,B3,B4,6h[8:1],,E3,B3,6h[8:1],,E3,B3,
5h[8:1],,B2,E3,5h[8:1],,B2,E3,6,,6,,4,5,4,5,
A2/D3f/A3,,B5,E5,1h[8:1],,B5,E5,1h[8:1],,B5,E5,1h[8:1],,B5,E5,
2h[8:1],,B6,B5,2h[8:1],,B6,B5,2h[8:1],,B6,B5,2h[8:1],,B6,B5,
3-5[8:1],,B7,E7,3,,B7,E7,4-2[8:1],,B7,E7,4,,B7,E7,
{1}1p8[8:4]*>8[8:4],
{16}3-8[8:1]/7,,,6,3,,5,,1q5[8:1],,6q2[8:1],,1,,6,,
4^1[8:1],,,8,4,,7,,6x-8[8:1]/1x-5[8:1],,,,61,,,,
{16}7-4[8:1]/4,,,3,7,,1,,5q1[8:1],,2q6[8:1],,5,,2,,
8^5[8:1],,,4,8,,4,3,2x-4[8:1]/5x-1[8:1],,,,25,,,,
{16}5-2[8:1]/A7/D8f/A8,,,7,5,,6,,5-8[8:1]/1,,,2,5,,3,,
4-1[8:1]/7,,,6,4,,5,,4x-7[8:1]/8x-3[8:1],,,,48,,,,
8^5[8:1]/4,,,3,8,,2,,1^4[8:1]/4,,,5,1,,6,,
7,6,54,3,27,6,54,3,2x/7x,,2x/7x,,{24}1x,8x,1xh[24:4],8xh[24:3],,,
{16},,3b/A6/E6f/A5,,7b/A1/E2f/A2,,,,8p4[8:1],,3p7[8:1],,8,,3,,
5^8[8:1],,,1,5,,2,,3x-1[8:1]/8x-4[8:1],,,,38,,,,
{16}2-5[8:1]/5,,,6,2,,8,,4p8[8:1],,7p3[8:1],,4,,7,,
1^4[8:1],,,5,1,,5,6,7x-5[8:1]/4x-8[8:1],,,,74,,,,
3bxh[16:2]/4bxh[16:2],,,1bxh[48:8]/8bxh[48:8],,,{48}2x,D3,3x,D4,4x,D5,{16}5bxh[16:2]/6bxh[16:2],,,1bxh[48:8]/8bxh[48:8],,,{48}7x,D7,6x,D6,5x,D5,
{16}3bx/4bx,,2,4,3,,7,5,6,,4,5,3,6,2,7,
1,,87,,65,,43,,2,1,3,8,4,7,5,6,
3,2,18,7,63,2,1p4b[80.8#256:13]/8q5b[80.8#256:13],7,
{384}3h[8:3]/6h[8:3],
1?p4[101#256:15],8?q5[101#256:15],,,,,,,,,,,,,,,,,,,,,,,,,,,,,,,,,,,,,,,,,,,,,,
{8}1?p4b[134.667#128:10]/8?q5b[134.667#128:10],
{384}
1?p4[8:1],8?q5[8:1],,,,,,,,,,,,,,,,,,,,,,,,,,,,,,,,,,,,,,,,,,,,,,,
{8}1?p4b[404#4:1]/8?q5b[404#4:1],
{32}1b<1[4:13]/8b<1[4:13],E1f,C,E5,,,,,
{4},,,{1},,,
{1}8>8[4:13]/2>8[4:13],,,,
{4}3p2[8:4]/4,4,4,4,
{16}2,3,2,3,2,,1,4,2,3,2,,34,,45,,
{4}6q7[8:4]/5,5,5,5,
{16}7,6,7,,7,6,7,,8,5,7,6,7,,7,,
{8}4s8[8:5]/6,6,6,6,5,5,5,5,
{24}4/1,,,1,E4,,1,,E5,1,,,E6/2,,,2,E7,,2,,E8,2,,,
{16}1/3h[8:2],8,7,6,5,,8/2h[8:2],7,6,5,4,,5/3h[8:1],6,7,8,
2x,1x,{48}2x,E3,D3,A3,D4,A4,{16}7x,8x,{48}7x,E7,D7,A6,D6,A5,{16}1,8,2,7,3,6,4,5,
{1}4w8[12.625#128:1],,,
{4},,,
4?w8[8:1]*w8[8:1],,,,,
E5h[4:1],E4h[4:1]/E6h[4:1],E7h[4:1]/E3h[4:1],,
{16}8bp4[32:3]/1b,,1,2,3p7[32:3]/8,,5,6,73,8,1,2,3,4,5,6,
3p7[32:3]/7,,8,7,6p2[32:3]/3,,8,1,26,3,4,5,6,7,8,1,
5/2-5[32:3],,1,6,2,,8,,4/7-4[32:3],,8,3,7,,1,,
25,3,4,5,36,4,5,6,78,1,2,3,45,6,7,8,
{16}1q5[32:3]/2,,8,7,6q2[32:3]/1,,4,3,26,1,8,7,6,5,4,3,
6q2[32:3]/2,,1,2,3q7[32:3]/6,,1,8,73,6,5,4,3,2,1,8,
7qq5[16:1]/3pp5[16:1],,,,,,4x/6x,3x/7x,2xp5[8:1]/8xq5[8:1],,,,,,,,
3h[8:1]/7,,7,6,5h[8:1]/2,,2,3,
8-2b[32:3]/4-6b[32:3],,1-7b[32:3]/5-3b[32:3],,84,,E1/E5,,
,,3b/A6/E6f/A5,,7b/A1/E2f/A2,,,,
{32}4h[8:1]/E1f,B8,,,,,6h[8:1]/E5f,B4,,,,,2h[8:1]/E7f,B6,,,
{24},,,8b/1b,7b/2b,6b/3b,5b/4b,,,,,,
{32}7h[8:1]/E5f,B5,,,,,3h[8:1]/E1f,B1,,,,,5/E3f,B3,,,
{16}6b-1[8:1]/4b,,7,5,6,,4,,8/2-5[8:1],,3,1,2,,8,,
74,6,5,4,63,5,4,3,21,8,7,6,54,3,2,1,
6v8b[8:1]/8,,1,2,3/6^4b[8:1],,4,3,26,1,8,7,6,5,4,3,
2v8b[8:1]/8,,7,6,5/2^4b[8:1],,4,5,62,7,8,1,2,3,4,5,
63,7,3,7,2,8,2,8,1,1,1,1,1,1,1,1,
{32}1b,2,3,4,5,6,7,8,1,2,3,4,5,6,7,8,
{64}1,D2,2,D3,3,D4,4,D5,5,D6,6,D7,7,D8,8,D1,1,D2/E2,2,D3/E3,3,D4/E4,4,D5/E5,5,D6/E6,6,D7/E7,7,D8/E8,8,D1/E1,
{1}1xbq1^4b[4:5]/5xbq5^8b[4:5],
{4},,,A7/E7/A6/A2/E3/A3,
{16}1h,2h,3h,4h,5h,6h,7h/1h,2h,3h,4h,5h,6h,{24}7h/E2/D2,A2,D3,A3,D4,A4,
{16}8h,7h,6h,5h,4h,3h,2h/8h,7h,6h,5h,4h,3h,{24}2h/E8/D8,A7,D7,A6,D6,A5,
{16}2h,3h,4h,5h/6h,7h,8h,{24}E2,E3,A3,E6,E7,A7,B2,B3,B4,B6,B7,B8,A3,D4,A4,
{16}7h,6h,5h,4h/3h,2h,1h,{24}E8,E7,A6,E4,E3,A2,B7,B6,B5,B3,B2,B1,A6,D6,A5,
{1}3xs7[8:4]/4xz8[8:4],
{16}6h[8:1]/D4/E4,,,3h[8:1]/D6/E6,,,7h[8:1]/E3/B2,,,2h[8:1]/E7/B7,,,8z4b[8:1]/1s5b[8:1],,36,,
18,,,,2b/7b,,3,4,58,6,7,8,1-6[8:1]/5,26,37,48,
15,,4,3,2b/7b,,6,5,41,3,2,1,8-3[8:1]/4,73,62,51,
48,,5,6,7-4b[8:1]/4,,3,,
{48}27,E7,B6,B5,E5,,{16}1,2,3^8[8:1]/6,,7,,
83,7,6,5,47,6,5,4,36,5,4,3,{32}1xh/2xh,8xh,7xh,6xh,5xh,4xh,3xh,2xh,
{16}7b,8,6,1,4,3,5,2,
6h[8:1]/E1f/A1/A8,,,3h[8:1]/E5f/A4/A5,,,7/Cf,,
2b,1,3,8,5,6,4,7,
3h[8:1]/D1f/A8/A1,,,6h[8:1]/D5f/A5/A4,,,2/Cf,,
{8}68,64,42,28,
{32}6/8h,1h,2h,3h,7,8,1,2,6h,7h,8h,1h,2h/6,3h/7,4h/8,5h/1,
{16}6xp2[404#16:3]/2,,1bp5[252.5#8:1]/E6f,,,4bp8[252.5#8:1]/E1f,,,7bp3[252.5#8:1]/E4f,,,2bp6[252.5#8:1]/E7f,,,4b/E2f,,
{1}5bz1-6[4:11]*s1-4[4:11],,,
{4},,E6/E4,,{8}3h[8:6],,4,E6,,,5,,
{8}6h[8:6],5,4,E3,,,{16}3,4,5,,
{8}5h[8:3],,,4h[8:3],,,3<7[8:4],,
{4},,5h[4:1],1-4[8:1]*-6[8:1],
{1}1p8[4:5],7p6[4:5],5p4[4:5],3p2[4:5],
{8}1h[4:4],,,,,B3,B4,B5,B6,,,E8/E2,,A5/A4/E5,,
{384}3v6[12.24#384:1],6v3[12.24#384:1],,,,,,,,,,,,,,,,,,,,,,,,,,,,,,,,,,,,,,,,,,,,,,,
{4},,,,,,,,,,,,,,,
3?v6[24:1]/6?v3[24:1],
{1},
E
