&title=Le Porteur d'Ombre
&artist=黒皇帝 feat. AKA
&first=0.105
&des=Belle de nuit
&des_5=
&lv_5=14+
&inote_5=(220){4},,,,,,,,{1}7b/3b<2[8:11],
{4},,,5h[4:1],
{1}4q5[8:9],
{2},6,
{1}3b/7b>6[8:11],
{4},,,1h[4:1],
{2}8p1[8:5],{4}3,4z8[4:3],
{1}5s1[2:1],
3b>6[1:1]/6b<3[1:1],
{2},{4}4,5h[4:1],
{2}3qq4[4:5],7h[4:1],
6h[4:1],5v4[16:3],
{8}2b,2,2,2,5,5,5,5,
1b,1,1,1,7,7,7,7,
{16}2b,1,2,1,2,1,2,1,3b,8,3,8,3,8,3,8,
3,8,{24}2,3,4,{8}7,{24}1,2,3,{8}6,{24}8,1,2,{8}5,{24}7,8,1,
{2}4s8[4:1],{4}1b,8,
8,8,7/1,2,
2,2,3/1,4,
{8}5/3,5/3,{4}1,{8}4-6[8:1],2-5[8:1],4,2,
{4}7,6/5,7,{8}1/8,{16}2,4,
{4}3,5/6,7,2/8,
3/4,2,6/4,7,
4/3V14[2:1],{8}1s5[4:1],8,{2},{4}5/6h[4:1],
{12}4b,7b,3b,{4}8b,{8}2-4[8:1],{16}1,8,
{4}2,5/6,4,{8}6-8[8:1],{16}5,4,
{4}6,2/1,3,{8}6-4[8:1],{16}7,8,
{8}6,1,{4}1,{8}3-5[8:1],7-5[8:1],3,7,
{4}1,1,1/5,1/6,
2,2,2/7,{16}1,8,2,7,
3b-5[16:1],{8},{16}7b-4[16:1],{8},2b-6[16:1],{16},8b-4[16:1],{8},1bw5[8:1],1,
1b,{4},{8}3b/7bp3[8:1],{4},1b,
2/8,3h[4:1],{8}5,4,{4}5/4,
7/1,6h[4:1],{8}4,5,4/5,{16}3,4,
{4}3,2h[4:1],{8}5-1[8:1],3,{4}5/4,
{16}8-5[8:1],2,8,2,{4},{16}3-1[8:1],4,3-5[8:1],4,{4},8,
6h[4:1],{8}4-8[8:1],4,{4}2,
1,3h[4:1],{8}6,6<1[8:1],1,{24}1/6,2,3,
{4}4,4/8,{8}3>8[8:1],8,{24}8/3,7,6,5,{12},{8}3,
3-5[8:1],5-1[8:1],1-7[8:1],{2}6b,
{4}2b/5b-8[8:1],5,2-6[8:1],2,
4-7[8:1],4,{16}1,8,1,8,{4}1-4[8:1],
8,7-4[8:1],2,{8}1,6,
2,7,{4}4>1[8:1],{24}4/8v1[8:1],7,6,5,{3},{8}6b,
6,6,6,6/3,3,3,3,
{16}6b,4,6,4,7,3,7,3,8,2,8,2,1,1,1,1,
{24}2/8,7/3,4/6,5,,,,,,1/7,2/6,3/5,{4}4,{24}2/8,3/7,4/6,5,,,,,,7/1,
2/6,3/5,{4}4,{16}2,8,4,6,3,5,1,7,
{1}8bpp6[4:7],
,5qq8[2:3],
1q6[2:1],
7V14[4:3],
{2}5>8[4:3],6,
{1}7p4[4:5],
{2},2pp5[1:2],
{1}8pp5[2:3],
,6p3[4:3],
{2}2,1qq3[2:3],
{1}6pp3[1:1],
{2},2q4[1:1],
{1}6q4[2:1],
{4}3,2,7,8,
{8}1b-5[8:3],{4},{8}7V51[2:1],{4},4,
{2}2,4h[2:1],
{8}8-4[8:3],{4},{8}2V48[2:1],{4},5,
{2}7,{4}6,2h[4:1],
{8}4-8[8:3],{4},{8}2V84[2:1],{4},7,
{8}5,{4},{8}6/5,{4},7V16[4:3],
{1}7V52[2:1],
{2}1V35[2:1],5V71[2:1],
{8}1V35[2:1],{4},{8}4,{4},6,
{2}8,7V51[2:1],
{8}1V37[2:1],{4},{8}8,{4},1,
{8}2V84[2:1],{4},{8}5,{4},6p3[4:7],
{1}7pp2[2:3],
,8h[2:3]/4h[2:3],
{8},,,,,{16}3,7,{4}5b-1[8:1],
{8}5/8h[4:1],{4},{8}2h[4:1],{4},{8}5h[8:1],4h[4:1],
6,6h[4:1],{4},{8}4,4,6,6,
1h[4:1],{4},{8}7h[4:1],{4},{8}4h[8:1],5h[4:1],
3,3h[4:1],{4},{8}5,5,2,2,
7h[4:1],{4},{8}3h[4:1],{4},{8}6h[8:1],4h[4:1],
5,5h[4:1],{4},{8}3,3,6,6,
2h[4:1],{4},{8}5h[4:1],{4},{8}3h[8:1],5h[4:1],
4,4h[4:1],{4},{8}6/5,6,4/7,4,
{4}8b,8,8/4,3/8,
2/8,1/8,{8}8,{16}1,7,{8}2,2,
{4}5,5,5/1,5/2,
5/3,5/4,{16}6,3,,7,{8}1,{16}1,8,
{8}2b,2,2,2,8/2,8,8,8,
{16}2b,1,3,8,4,7,5,6,3,4,2,5,1,6,8,7qq4[16:17],
{1}1pp4[1:1],
{8},,,,,{24}2,3,4,{4}5/8b,
{8}2/8,{16}3,4,{8}3,1/7,{16}6,5,{8}6,3/8,{16}4,5,
4,5,{8}4,{16}6-8[8:1],5,{8}7,4-8[8:1],3,5,5,
7/1,{16}3,4,{8}2,1/7,{16}6,5,{8}7,3/8,{16}4,5,
3,6,{8}2,{24}1/8,7,6,5,{12},{8}2-5[8:1],5-1[8:1],8,8,
7,{16}6,5,{8}7,2/8,{16}3,4,{8}2,7/1,{16}6,5,
7,5,{8}7,{16}4-2[8:1],5,{8}3,8-4[8:1],7,1,1,
2,{16}3,4,{8}1,8/2,{16}6,5,{8}8,1/7,{16}3,4,
2,4,{8}2,{16}5-2[8:1],4,{8}6,7-4[8:1],8,1b,1,
2,{16}6,5,{8}7,8/2,{16}3,4,{8}2,1/6,{16}7,8,
7,1,{8}6,{16}3v8[8:1],4,{8}2,7-4[8:1],6,1,1,
2,{16}7,5,{8}6,7/1,{16}2,4,{8}3,2/8,{16}7,8,
6b-1[16:1],{8},{16}2b-6[16:1],{8},8b-4[16:1],{16},3b-8[16:1],{8},3,6,
5/1,5,5,5/3,3-7[8:1],3,{4}3/8b,
{16}6,1,6,1,6,1,6,1,6-2[8:1],1,6,1,{4}6b,
{32}3,4,5,6,7,8,1,2,3,4,5,6,7,8,1,2,3q5[8:5],4,5,6,7q5[2:1],8,1,2,{4}3,
{8},,,,,{24}7,6,5,{4}4/1b,
{8}3-5[8:1],3,7-4[8:1],7,2-5[8:1],2,8<5[8:1],8,
1>4[8:1],1,8-5[8:1],8,2-5[8:1],2,7-4[8:1],7,
1-3[8:1],1,8-4[8:1],8,1-5[8:1],1,8<5[8:1],8,
{16}4,3,2,1,{8}8-4[8:1],5-7[8:1],8,5,3,{24}3,2,1,
{8}8-3[8:1],8,6-1[8:1],6,4>1[8:1],4,{16}8,7,6,5,
{8}4-8[8:1],1-3[8:1],4,1,7<4[8:1],4,7,{24}3,2,1,
{8}8-3[8:1],5-1[8:1],8,5,4>1[8:1],8,4,{24}8,7,6,
{16}5,1,4,2,4,3,4,3,5-1[8:1],2,5,2,{4}5b,
{8}3v8[8:1],3,7-4[8:1],7,2v5[8:1],2,6v1[8:1],6,
3-8[8:1],3,7-3[8:1],7,4-1[8:1],4,5-8[8:1],5,
2-6[8:1],2,7-4[8:1],7,1>4[8:1],1,{24}5/1,6,7,8,{12},2b,
4b,3b,7b,5b,6b,1bw5[8:1],3b,2b,1b,{6},{16}2,
7,2,7,2,7,2,7,2-5[8:1],8,1,7,{4}2b,
{16}6,3,6,3,6,3,6,3,6-1[8:1],4,5,3,{4}6b,
{24}2,3,4,8,7,6,1,2,3,7,6,5,2,3,4,8,7,6,{32}1,2,3,4,5,6,7,8,
{16}1b,5b,3b,7b,{8},{16}8b,4b,6b,2b,{8},{32}1/5,2/6,3/7,4/8,{8}1h[32:11]/5h[32:11],
{4},{32}4b/8b,3b/7b,6b/2b,1bp7[32:53]/5bp3[32:53],
E
