&title=Aじゃないか
&artist=ピノキオピー
&first=0.1
&des=Deva // Asyura
&lv_5=13+
&inote_1=
&inote_5=(147){8}
Cf,,,,,,,,2v3-5[8:1],,6v7-1[8:1],,{16}E3,,4,4,Cf,,,,
{8}1-6[8:1]*-4[8:1],,,,8-5[8:1]*>2v3<5[8:1],,,,{16}6,5,6,5,6,5,6,5,1<3[8:1],,,,,,,,3h[2:1]/B5,,,,,,,,C,,,,,,,,Ch[2:1],,,,,,,,1-5[8:1],,,7,1x,,,,E1f/B8/B1,,
3,4,2,2-5[8:1],,3/4,,2,,6,,8,8hx[16:6],,A6,,A1,,A4,,,6x/B2,,3x/B7,,1>4[8:1],8x,7x,6x,5x,,,6,5,7,7-4[8:1],,6/5,,7,,3,,1,1hx[16:6],,A2,,A5,,A8,,,3x/B7,,6x/B2,,7<4[8:1],8x,1x,2x,3x,,,
6,6,1,1-5[8:1],,5-2[8:1],,1/7,,8,,6,6hx[16:6],,A5,,A8/D1,,A3/E4/D4,,,5-7[8:1],,7-4[8:1],,8x,1x,2x,3x,4x,,,1,1,5,5<8[8:1],,2-5[8:1],,5-3[8:1],,2,,7x,7h[16:2],,5hb[8:1],,1b,,7/5,7/5,,1b-6[8:1]*-4[8:1],,2b/8b,,,,,,,
7hx[4:1],,6,,6pp1[16:6],,,,4-1b[8:1],,,,4,,,,2hx[4:1],,1,,1v6>5[16:6],,,,8-5[8:1],,,,8,,,,6hbx[4:1]/3-7[8:1],,,,3b/5pp1[16:6],,,,4b-1b[8:1],,,,4,,,,1hx[4:1]/5-7[8:1],,5,,5v8<5[16:6],,,,2-5[8:1],,,,2,,,,
5hx[4:1],,4,,3,4,5,6xp1[8:1]/3xq8[8:1],,,,3b/6b,,,,,8hx[4:1],,1,,1<1[16:6],8,1,8,1z5[8:1],,,,Cf,,,,Ch[2:1]/2hx[2:1],,,,,,,,,,,,,,,,7xh[4:1],,1,,6,3,6,1,4-8[8:1]/5-1[8:1],,,4bx/5bx/Cf/E5/E1,,,,,
1x-4[8:1],,1,,7<5q2[16:6],,8,,3-7b[8:1],,,,3,,,,5v7[8:1],,5,,2-6-3[16:6],,2,,8-4[8:1],,,,8,,,,6h[4:1],,1,,5h[4:1],,1,,4h[4:1],,8,,A7/D8/E8f,,,,3h[4:1],,8,,4h[4:1],,8,,5h[4:1],,1,,A2/D2/E2f/B2/E3,,,,3-8[8:1],,2,,5pp1[16:6],,6,,4-1b[8:1],,3,,4,,,,1xv3[8:1],,2,,5-8-4[16:6],,6,,2-6[8:1],,1,,2/Cf,,,,
Ch[1:1]/7h[2:1],,,,,,,,,,,,,,,,7,,,,7,,,,6,,,,6,,,,5,,5,,5/2,,5/3,,6,,6,,6/3,,6/2,,1-5[8:1],5,1,5,1,,,,{32}1xb,2x,3x,4x,5x,6x,7x,8x,1x,2x,3x,4x,,,,,
{16}6x-1[8:1],5,7,5,6bx,5,,,3x-8[8:1],4,2,4,3bx,4,,,4,4,2,2,1x<3[4:1],2,8,3,A1f,,,,,,,,7x-4[8:1],8,6,1,7bx,8,,2x,2x-5[8:1],1,3,8,2bx,1,,6x,8,8,2,2,4x<2b[4:1],3,6,1,A4f,,,,,,,,
6x-8-4[6:1],5,7,5,A6f,,,,3x-1-5b[6:1],4,2,4,A3f,,,,1-5[8:1],,2,,7-3[8:1],,6,,8z4b[8:1],,2,,A3f,A2,A1,A8,7hx[2:1],,,,4qq4[4:1],,,,4pp4[4:1],,,,,,,,1,,2/8,,1/6,1/6,,3/8,,1/5,,2/6,4>4[16:12]*<4[16:12],,,,
{8}4b,,,,,,,,{16}2h[16:4]/A5,,A8,,A3,,,8/A5/B5,,8/A6/B6,,8<5[8:1],4x,3x,2x,1x,,,7,8,6,6v1[8:1],,7/8,,6,,2,,4,4hx[16:6],,A2,,A8,,A6,,,1/A4/B4,,1/A3/B3,,1>4[8:1],4x,5x,6x,7x,,,
7,7,4,4-8[8:1],,8>3[8:1],,4/6,,5,,7,7hx[16:6],,A6,,A4,,A2,,,5/A8/B8,,5/A7/B7,,5<8[8:1],8x,1x,2x,3x,,,8,8,4,4-2<1[8:1],,6-4[8:1],,4v7[8:1],,6,,2,2h[16:2],,4bhx[8:1],,8b,,2/4,2/4,,8b-3[8:1]*-5[8:1],,7b/1b,,,,,,,
6-4-8[4:1],,6,,8-3[8:3],,,,2-6b[8:1],,,,2x,,,,3-5-2[4:1],,3,,2-8-4[8:3],,,,6-2b[8:1],,,,6x,,,,1x-6[8:1],,1v4b[8:1],,,,,,8x-6[8:1]*-5[8:1],,8v3b[8:1]*-2b[8:1],,,,,,7hx[8:6],,2hx[8:5],,,,,,,,,,{24}D7/D3,A6/A3,D6/D4,A5/A4,D5f,,
{16}8p4>2[4:1],,1/7,,2-6<8[8:3],,1,,1p5b[8:1],,,,1x,,,,5<6p1[4:1],,4/6,,1>3-7[8:3],,4,,4p8b[8:1],,,,4x,,,,2v5[8:1]/8v5[8:1],,3/7,,,,,,1p3b[8:1]/7q5b[8:1],,6/2,,,,,,7h[8:1],,,4,8,,2,4,1,6,1,7,5<7b[8:1]/4-7b[8:1],,,,5x/4x/B5/B6/E5/E6/E7/D6/A6/D7/A7f,,,,,,,,Chf[4:6]/E1f/B8/B1,,,,,,,,E3f/B2/B3,,,,,,,,E7f/B6/B7,,,,,,,,
1,8,1,8,1,8,1,8,B2f,8,1,8,1,8,1,8,B2f,,7,,7,,{32}8x,1x,2x,3x,{12}6-2[8:1],8x,2x,{24}4bx/6x/B4/Cf/B8,,,,,,
{8}5-8-3-8-5[8:28],,,,,,,,,,,,,,,,6-2b[8:12],,,,,,,,,,,,,,,,6h[8:1]/4h[8:1],,6h[8:1]/4h[8:1],,3h[8:1]/5h[8:1],,3h[8:1]/5h[8:1],
,6xh[8:1]/2xh[8:1],,7xh[8:1]/1xh[8:1],,8xz4[8:1],,,,Cf,,,,,,,,1b/A5f,1b/A5f,{16}2b/A6f,2b/A6f,,A3/A7f,,A2/A6f,,A1/A5f,,{24}2x,6,2,
{16},6x-8-4[6:1],5,7,4,6bx,3,,,3x-1-5[6:1],4x,2,5,3bx,6,,,8,8,6,6,5x>7[4:1],4,8,1,A5f,,,,,,,,7x-5-1[6:1],8,6,1,7bx,2,,2x,2x-4-8[6:1],1x,3,8,2xb,7,,3x,5,5,7,7,8x>7b[4:1],2,6,4,A8f,,,,,,,,
6xq2-5[6:1],5,7,5,A6f,,,,3xp7-4[6:1],4,2,4,A3f,,,,6-2[8:1],,7,,4-8[8:1],,3,,5s1b[8:1],,7,,A2f,A3,A4,A5,6hx[2:1],,,,1pp1[4:1],,,,1qq1[4:1],,,,,,,,2x/3x,,4/5,,6/7,,8/1,,2z6[8:1]/3s7[8:1],,,,3bx/2bx/Cf/E3/E7,,,,6x-1[8:1],,,,5qq2[8:3]/6,,,,1x<6b[8:1],,,,1x,,,,3-8[8:1],,,,7qq4[8:3]/3,,,,8x-2>3b[8:1],,,,8,,,,1xq6[8:1],,1,,7p2[4:1],,7,,2>7[4:1],,,,7-3b[8:1],,,,A7f/1<7b[8:1],,,,A1f/5v2b[8:1],,,,A5f/4v7b[8:1],,,,A4f,,,,2>5[8:1],,1,,6pp1[8:3],,,,3xz7b[8:1],,,,3x,,,,6v1[8:1],,5,,4qq1[8:3],,,,7xs3b[8:1],,,,7x,,,,3bhx[2:1]/6bhx[2:1],,,,,,,,,,,,6pp6>4[8:2],,3qq5[8:2]*qq5[8:2],,,,,,,,,,1b/3b,,,7b/5b,,,3b/5b,,4b<4[16:8]*>4[16:8],,,,,,,,,,,,,,,,
7h[16:4]/A6,,A1,,A4,,,8/A4/B4,,7/A3/B3,,7<4[8:1],3x,2x,1x,8x,,,1,2,5,5-1[8:1],,4/6,,5,,7,,4,4hx[16:6],,A5,,A8,,A3,,,5/A1/B1,,6/A2/B2,,2>5[8:1],6x,7x,8x,1x,,,
6,6,1,1-5[8:1],,6,,1>3[8:1],,7,,8,8hx[16:6],,A7,,A2,,A5,,,8/A4/B4,,7/A3/B3,,3>7[8:1],7x,6x,5x,4x,,,
3,4,1,8<5[8:1],,4-1[8:1],,8,,4,,6,6h[16:2],,8bhx[8:1],,4b,,7/1,7/1,,4b-7b[8:1]*-1b[8:1],,3b/5b,,,,,,,4-1-6[4:1],,,,6-1-4b[8:2],,,,,,,,,,,,5-8-3b[8:1],,,,,,,,1x-5[8:6]/7x-3[8:6],,,,,,,,,,,,
