&title=Silent tonight
&artist=BiBi
&first=0.56
&des=Ragna
&wholebpm=85
&demo_seek=61.8
&demo_len=25.5
&des_5=Ragna
&lv_5=13
&inote_5=(85){8}3,5,5,6,4,,,{16}6,6,
6,,{24}4,3,4,{8}3,7h[8:3],,,,,
2,4,4,6,3h[2:1],,,,{32}
4,5,{16}6h[16:7],{8},,,,,,,
2h[1:1],,,3^8[4:1],,,,,
7h[4:3],,,8-5[4:1],,,,,
5,4,4,5^8[4:1],,,5,,
3,7,2,2-6[4:1],,,2,,
6,6,3,4-7[4:1],,,4,,
6,{16}5,5,{8}5^2[16:5],5h[8:3],,,,,
7,7,6,2^5[4:1],3,4,2,,
5,7,4,8-5[4:1],7,6,8,,
6^3[4:1],,4,,5^2[4:1],,3,,
4-1[4:1],{16}2,2,{8}2,2h[2:1],,{16}8h,8h,{8}8h,8h,
1-6[4:1]/8,,6,,7-4[4:1],,6,,
5-1[8:1],,3-8[8:1],,7-2[8:1],6,5,{16}4,4,{8}
3^6[4:1],,4,,2^5[4:1],,4,,
1^4[4:1],,4-8[16:5],,{16}7,7,,5,,7,{8},
1^6[4:1],,5,,8-4[4:1],,5,,
2-5[8:1],,4-8[8:1],,3-6[8:1],,,{16}7,7,{8}
7-3[2:1],8,6,1,5,2,4,3,
18,78,82,13,27,16,4^1[8:1]/5^8[8:1],,
4b/5b,,2-5[8:1]/7-4[8:1],5^8[8:1]/4^1[8:1],,,,1-5[8:1],
5-2[8:1],1^6[8:1],6^3[8:1],1,4,,1-5[8:1]/4^7[8:1],,
,,8-4[8:1]/5^2[8:1],,5b-1[8:1],,,{16}3^6[16:3],3,{8}
,5^2[16:3],7,{16}8,8,{8},,1^4[8:1]/5^8[8:1],,
15,,8^5[8:1]/4^1[8:1],1-5[8:1]/5-1[8:1],,,,4-8[8:1],
8^3[8:1],4^7[8:1],7-3[8:1],4,4,,1^6[8:1],,
8^3[8:1],,5-8[8:1],,4-1[8:1],,7-3[4:3],,
2,4,1,5,8,6,{4}7-3[8:1],
7b^4[8:5]/1b^4[8:5],,,,
5^8[8:1],5^2[8:1],1-5[8:1],1^6[8:1],
7-2[8:1],7-4[8:1],3-7[8:1],3^8[8:1],
1^4[8:1],1-6[8:1],8-3[8:1],8-4[8:1],
6^3[8:1],6,{16}2,1,38,,7,8,16,,{4}
3-6[8:1],4^1[8:1],5-1[8:1],8-3[8:1],
2-6[8:1],4^7[8:1],5-2[8:1],8^3[8:1],
1-5[8:1],4-1[8:1],6-3[8:1],8-4[8:1],
2^7[8:1],5-2[8:1],4b-1[8:13],,
,,,,
,,{32}27,36,{1}4^1[16:23]/5^8[16:23],,
E
